Ёлки новые (Жора Крыжовников, Дмитрий Киселёв, Александр Карпиловский) [2017, Комедия, мелодрама, WEB-DLRip]


by Boris G ®
15-Dec-2018 07:12

[Quote]

Ёлки новые (Жора Крыжовников, Дмитрий Киселёв, Александр Карпиловский) [2017, Комедия, мелодрама, WEB-DLRip]

Ёлки новые
«Нашли, с кем праздновать!»


Год выхода: 2017
Выпущено: Россия / Базелевс Продакшн
Жанр: комедия, мелодрама
Продолжительность: 01:25:39
Режиссёр:
Жора Крыжовников, Дмитрий Киселёв, Александр Карпиловский, Алексей Нужный, Александр Котт
В ролях:
Иван Ургант, Сергей Светлаков, Дмитрий Нагиев, Юлия Александрова, Антон Богданов, Валентина Мазунина, Елена Яковлева, Сергей Пускепалис, Екатерина Климова, Андрей Бурковский
Описание:
В декабре 2017 будет жарко! Дружба Жени и Бори едва не сгорит в огне семейного скандала; глубоко беременная Снегурочка отправится в Одиссею по нижегородским семьям; отчаянная Галя из Новосибирска пойдет на все, чтобы провести ночь с любимым врачом; экстремальный поход в лес за елкой станет проверкой на прочность для юного хипстера из Тюмени и его потенциального отчима. Новые и хорошо знакомые герои «Ёлок» влюбляются, ссорятся и мирятся, совершают геройские поступки и попадают впросак, лишь бы найти на Новый год настоящую родственную душу, как один смелый мальчик из Хабаровска, сбежавший в поисках новой мамы в Москву. И помочь им может только чудо… или вся страна!
Качество: WEB-DLRip [WEB_DL_1080p]
Формат: AVI
Видео: 720x304 (2.37:1), 24.000 fps, XviD build 65 ~2232 kbps avg, 0.42 bit/pixel
Аудио: 48 kHz, AC3 Dolby Digital, 2/0 (L,R) ch, ~192 kbps avg

Скриншоты


MediaInfo

Код:General
Complete name : D:\Yolki_novye_2017_WEB-DLRip_by_Dalemake.avi
Format : AVI
Format/Info : Audio Video Interleave
File size : 1.45 GiB
Duration : 1 h 25 min
Overall bit rate : 2 432 kb/s
Writing application : VirtualDubMod 1.5.10.3 | www.virtualdub-fr.org || (build 2550/release)
Writing library : VirtualDubMod build 2550/releaseVideo
ID : 0
Format : MPEG-4 Visual
Format profile : Advanced Simple@L5
Format settings : BVOP2 / Custom Matrix
Format settings, BVOP : 2
Format settings, QPel : No
Format settings, GMC : No warppoints
Format settings, Matrix : Custom
Codec ID : XVID
Codec ID/Hint : XviD
Duration : 1 h 25 min
Bit rate : 2 233 kb/s
Width : 720 pixels
Height : 304 pixels
Display aspect ratio : 2.35:1
Frame rate : 24.000 FPS
Color space : YUV
Chroma subsampling : 4:2:0
Bit depth : 8 bits
Scan type : Progressive
Compression mode : Lossy
Bits/(Pixel*Frame) : 0.425
Stream size : 1.34 GiB (92%)
Writing library : XviD 65Audio
ID : 1
Format : AC-3
Format/Info : Audio Coding 3
Codec ID : 2000
Duration : 1 h 24 min
Bit rate mode : Constant
Bit rate : 192 kb/s
Channel(s) : 2 channels
Channel positions : Front: L R
Sampling rate : 48.0 kHz
Frame rate : 31.250 FPS (1536 SPF)
Bit depth : 16 bits
Compression mode : Lossy
Stream size : 116 MiB (8%)
Alignment : Split accross interleaves
Interleave, duration : 42 ms (1.01 video frame)
Interleave, preload duratio : 500 ms
Service kind : Complete Main
Download

Download free and at maximum speed!

How to Download? · What is a torrent? · Ratings and Limitations




You cannot post new topics in this forum
You cannot reply to topics in this forum
You cannot edit your posts in this forum
You cannot delete your posts in this forum
You cannot vote in polls in this forum
You cannot attach files in this forum
You cannot download files in this forum