Девушки на миллион йен / 1,000,000 yen no Onnatachi / Million Yen Women [Сезон: 1] [12 из 12] [2018, саспенс, детектив, драма, комедия, WEB-DL 1080p] [RAW] [1080p] DVO (ViruseProject) + Original + SUB


by Boris G ®
14-Dec-2018 17:57

[Quote]

Девушки на миллион йен / 1,000,000 yen no Onnatachi / Million Yen Women [Сезон: 1] [12 из 12] [2018, саспенс, детектив, драма, комедия, WEB-DL 1080p] [RAW] [1080p] DVO (ViruseProject) + Original + SUB

Девушки на миллион йен | 1,000,000 yen no Onnatachi | Million Yen Women
Страна: Япония
Год выпуска: 2018
Жанр: саспенс, детектив, драма, комедия
Продолжительность: ~00:25:00
Режиссер: Митихито Фудзий, Хиротоши Хара, Кендзи Кувадзима
В ролях: Ёхира Нода, Рила Фукушима, Рена Матсуи, Мивака Магатсума и др.
Перевод: Двухголосый закадровый ViruseProject
автор перевода: ViruseProject
Описание: Шин Мичима— автор непопулярных произведений. Вот уже полгода он живет под одной крышей с пятью девушками. Сиракава Минами любит кофе. Цукамото Хитоми нравится черный чай, йога и чтение книг. Кобаяси Юки вежлива и предпочитает зеленый чай. Судзумура Мидори — ученица старшей школы и любит вишневый сок. Сэки Нанака пьет молоко.
Ежемесячно они платят Шину 1 млн. йен в качестве аренды жилья и обслуживания. У каждой из них своя роль, и любые вопросы к ним Шину задавать запрещено.
Неотключаемые субтитры: Без хардсаба
Русские субтитры: Есть
Оригинальная аудиодорожка: Есть
Качество видео: WEB-DL 1080p
Разрешение: 1080p
Формат: MKVВидео: 1920 x 1080 (16:9), 4 500 kb/s, 29.970 fps, 8 bits
Аудио 1 [Rus]: 48 kHz, AAC, 2/0 (L,R) ch, 192 kb/s
Аудио 2 [Jap]: 48 kHz, AC-3, 6 channels, 128 kb/s
Субтитры: русские (ViruseProject), английские, корейские, японские, китайские, тайские, испанские, португальские, итальянские, французские, немецкие, польские, финские, шведские
Реклама: В аудио в начале 10 секунд.

Внимание! Раздача ведётся путём добавления новых серий

Внимание! Раздача ведётся путём добавления новых серий; при каждом добавлении создаётся новый торрент. Чтобы начать докачку новой серии, пользователям необходимо сделать следующее:
(1) остановить скачивание,
(2) удалить старый торрент у себя из клиента (старые серии удалять не надо),
(3) скачать новый торрент и запустить его у себя в клиенте вместо старого, при этом указать клиенту путь в старую папку куда и должно происходить скачивание новых серий.Ваш клиент при этом должен произвести хеширование (проверку) старой папки (если не производит сам - помогите ему сделать это), и будет докачивать только те серии которых у вас ещё нет. Старые серии при этом не удаляются, а продолжают раздаваться!Eсли вы уже удалили старые серии, то предотвратить повторную закачку старых серий можно, отжав галочку в соответствующих местах при запуске нового торрента. По возможности, желательно не удалять старые серии как можно дольше чтобы релизёр не столько продолжал раздавать старые серии, а смог сконцентрироваться на новых.

MediaInfo

General
Unique ID : 202497136369545220271113199282544803213 (0x985787A4D17A64DA91BBAB897E457D8D)
Complete name : E:\Tabula.Rasa.S01E01.1080p.WEB-DL.ViruseProject.mkv
Format : Matroska
Format version : Version 4 / Version 2
File size : 1.75 GiB
Duration : 50 min 10 s
Overall bit rate mode : Variable
Overall bit rate : 4 989 kb/s
Encoded date : UTC 2018-04-09 18:10:46
Writing application : mkvmerge v8.3.0 ('Over the Horizon') 64bit
Writing library : libebml v1.3.1 + libmatroska v1.4.2Video
ID : 1
Format : AVC
Format/Info : Advanced Video Codec
Format profile : Main@L4
Format settings, CABAC : Yes
Format settings, ReFrames : 3 frames
Codec ID : V_MPEG4/ISO/AVC
Duration : 50 min 9 s
Bit rate mode : Variable
Bit rate : 4 420 kb/s
Maximum bit rate : 6 630 kb/s
Width : 1 920 pixels
Height : 1 080 pixels
Display aspect ratio : 16:9
Frame rate mode : Constant
Frame rate : 25.000 FPS
Color space : YUV
Chroma subsampling : 4:2:0
Bit depth : 8 bits
Scan type : Progressive
Bits/(Pixel*Frame) : 0.085
Stream size : 1.55 GiB (88%)
Writing library : x264 core 148 r2715 7e75228
Encoding settings : cabac=1 / ref=3 / deblock=1:0:0 / analyse=0x1:0x111 / me=umh / subme=10 / psy=1 / psy_rd=1.00:0.00 / mixed_ref=1 / me_range=24 / chroma_me=1 / trellis=2 / 8x8dct=0 / cqm=0 / deadzone=21,11 / fast_pskip=1 / chroma_qp_offset=-2 / threads=8 / lookahead_threads=1 / sliced_threads=0 / nr=0 / decimate=1 / interlaced=0 / bluray_compat=0 / stitchable=1 / constrained_intra=0 / bframes=2 / b_pyramid=0 / b_adapt=2 / b_bias=0 / direct=3 / weightb=1 / open_gop=0 / weightp=2 / keyint=50 / keyint_min=26 / scenecut=0 / intra_refresh=0 / rc_lookahead=50 / rc=2pass / mbtree=1 / bitrate=4420 / ratetol=1.0 / qcomp=0.50 / qpmin=6 / qpmax=51 / qpstep=4 / cplxblur=20.0 / qblur=0.5 / vbv_maxrate=6630 / vbv_bufsize=8840 / nal_hrd=vbr / filler=0 / ip_ratio=1.40 / aq=1:1.00
Default : Yes
Forced : NoAudio #1
ID : 2
Format : AAC
Format/Info : Advanced Audio Codec
Format profile : LC
Codec ID : A_AAC
Duration : 50 min 10 s
Bit rate : 192 kb/s
Channel(s) : 2 channels
Channel positions : Front: L R
Sampling rate : 48.0 kHz
Frame rate : 46.875 FPS (1024 spf)
Compression mode : Lossy
Stream size : 68.9 MiB (4%)
Title : ViruseProject
Language : Russian
Default : No
Forced : NoAudio #2
ID : 3
Format : AC-3
Format/Info : Audio Coding 3
Format settings, Endianness : Big
Codec ID : A_AC3
Duration : 50 min 9 s
Bit rate mode : Constant
Bit rate : 384 kb/s
Channel(s) : 6 channels
Channel positions : Front: L C R, Side: L R, LFE
Sampling rate : 48.0 kHz
Frame rate : 31.250 FPS (1536 spf)
Bit depth : 16 bits
Compression mode : Lossy
Stream size : 138 MiB (8%)
Title : Flemish
Language : Dutch
Service kind : Complete Main
Default : No
Forced : NoText #1
ID : 4
Format : UTF-8
Codec ID : S_TEXT/UTF8
Codec ID/Info : UTF-8 Plain Text
Duration : 50 min 9 s
Bit rate : 74 b/s
Count of elements : 520
Stream size : 27.3 KiB (0%)
Title : ViruseProject
Language : Russian
Default : No
Forced : NoText #2
ID : 5
Format : UTF-8
Codec ID : S_TEXT/UTF8
Codec ID/Info : UTF-8 Plain Text
Duration : 48 min 54 s
Bit rate : 46 b/s
Count of elements : 514
Stream size : 16.8 KiB (0%)
Language : English
Default : No
Forced : NoText #3
ID : 6
Format : UTF-8
Codec ID : S_TEXT/UTF8
Codec ID/Info : UTF-8 Plain Text
Duration : 48 min 54 s
Bit rate : 51 b/s
Count of elements : 496
Stream size : 18.6 KiB (0%)
Language : German
Default : No
Forced : NoText #4
ID : 7
Format : UTF-8
Codec ID : S_TEXT/UTF8
Codec ID/Info : UTF-8 Plain Text
Duration : 48 min 27 s
Bit rate : 46 b/s
Count of elements : 505
Stream size : 16.5 KiB (0%)
Language : Dutch
Default : No
Forced : NoText #5
ID : 8
Format : UTF-8
Codec ID : S_TEXT/UTF8
Codec ID/Info : UTF-8 Plain Text
Duration : 48 min 27 s
Bit rate : 47 b/s
Count of elements : 511
Stream size : 16.7 KiB (0%)
Language : Dutch
Default : No
Forced : NoText #6
ID : 9
Format : UTF-8
Codec ID : S_TEXT/UTF8
Codec ID/Info : UTF-8 Plain Text
Duration : 49 min 51 s
Bit rate : 50 b/s
Count of elements : 557
Stream size : 18.5 KiB (0%)
Title : SDH
Language : Dutch
Default : No
Forced : No

Скриншоты

Download

Download free and at maximum speed!

How to Download? · What is a torrent? · Ratings and Limitations




You cannot post new topics in this forum
You cannot reply to topics in this forum
You cannot edit your posts in this forum
You cannot delete your posts in this forum
You cannot vote in polls in this forum
You cannot attach files in this forum
You cannot download files in this forum