Самурай и гурман / Kodoku no Gourmet / Samurai Gourmet [Сезон: 1] [12 из 12] [2018, комедия, WEB-DL 720p] [RAW] [1080p] DVO (ViruseProject) + Original + SUB


by Boris G ®
14-Дек-2018 17:34

[Цитировать]

Самурай и гурман / Kodoku no Gourmet / Samurai Gourmet [Сезон: 1] [12 из 12] [2018, комедия, WEB-DL 720p] [RAW] [1080p] DVO (ViruseProject) + Original + SUB

Самурай и гурман | Kodoku no Gourmet | Samurai Gourmet
Страна: Япония
Год выпуска: 2018
Жанр: комедия
Продолжительность: ~00:20:00
Режиссер: Митихито Фудзий, Мамору Хоси
В ролях: Наото Такэнака, Тэцудзи Тамаяма, Хонами Судзуки, Хироки Хаяси, Хироки Икэхара, Дзёдзи Танума, Томоко Акасэ, Эйдзи Акасо, Тосимицу Амано, Рюити Андо и др.
Перевод: Двухголосый закадровый ViruseProject
автор перевода: ViruseProject
Описание: 60-летний японец ТакЕши проработал большую часть своей жизни и ничего, кроме работы, и не видел. Но тут он выходит на пенсию и заново открывает мир вокруг себя: новые места, новые люди, новая еда. Освоиться в этом интересном мире Такеши помогает самурай-бродяга, или его внутреннее "я". Он вдохновляет Такеши на смелые поступки и на неординарные кулинарные изыски. Сериал для тех, кто хочет узнать побольше о японской культуре и еде. Очень голодным лучше не смотреть...
Неотключаемые субтитры: Без хардсаба
Русские субтитры: Есть
Оригинальная аудиодорожка: Есть
Качество видео: WEB-DL 720p
Разрешение: 720p
Формат: MKVВидео: 1280 x 720 (16:9), ~2 300 Kbps, 29.970 fps, 8 bits
Аудио 1 [Rus]: 48 kHz, AAC, 2/0 (L,R) ch, 192 kb/s
Аудио 2 [Jap]: 48 kHz, AC3, 6 channels, 384 kb/s
Субтитры: русские, английские, испанские, японские, китайские
Реклама: В аудио в начале и конце по 10 секунд.

MediaInfo

General
Unique ID : 209363708072405968307580332031035341044 (0x9D81FBC453AA08AAB63B22B3D09078F4)
Complete name : E:\ОЗВУЧКА\777ЗАЛИВ777\Samurai.Gourmet.S01.ViruseProject\Samurai.Gourmet.S01.720p.ViruseProject\Samurai.Gourmet.S01E01.720p.WEB-DL.ViruseProject.mkv
Format : Matroska
Format version : Version 4 / Version 2
File size : 304 MiB
Duration : 18 min 59 s
Overall bit rate mode : Variable
Overall bit rate : 2 240 kb/s
Encoded date : UTC 2018-07-09 11:55:10
Writing application : mkvmerge v8.3.0 ('Over the Horizon') 64bit
Writing library : libebml v1.3.1 + libmatroska v1.4.2Video
ID : 1
Format : AVC
Format/Info : Advanced Video Codec
Format profile : Main@L3.1
Format settings, CABAC : Yes
Format settings, ReFrames : 3 frames
Codec ID : V_MPEG4/ISO/AVC
Duration : 18 min 46 s
Bit rate mode : Variable
Bit rate : 1 690 kb/s
Maximum bit rate : 2 535 kb/s
Width : 1 280 pixels
Height : 720 pixels
Display aspect ratio : 16:9
Frame rate mode : Constant
Frame rate : 29.970 (30000/1001) FPS
Color space : YUV
Chroma subsampling : 4:2:0
Bit depth : 8 bits
Scan type : Progressive
Bits/(Pixel*Frame) : 0.061
Stream size : 226 MiB (74%)
Writing library : x264 core 118
Encoding settings : cabac=1 / ref=3 / deblock=1:0:0 / analyse=0x1:0x111 / me=umh / subme=10 / psy=1 / psy_rd=1.00:0.00 / mixed_ref=1 / me_range=24 / chroma_me=1 / trellis=2 / 8x8dct=0 / cqm=0 / deadzone=21,11 / fast_pskip=1 / chroma_qp_offset=-2 / threads=8 / sliced_threads=0 / nr=0 / decimate=1 / interlaced=0 / bluray_compat=0 / constrained_intra=0 / bframes=2 / b_pyramid=0 / b_adapt=2 / b_bias=0 / direct=3 / weightb=1 / open_gop=0 / weightp=2 / keyint=60 / keyint_min=31 / scenecut=0 / intra_refresh=0 / rc_lookahead=0 / rc=2pass / mbtree=1 / bitrate=1690 / ratetol=1.0 / qcomp=0.50 / qpmin=6 / qpmax=51 / qpstep=4 / cplxblur=20.0 / qblur=0.5 / vbv_maxrate=2535 / vbv_bufsize=3380 / nal_hrd=vbr / ip_ratio=1.40 / aq=1:1.00
Default : Yes
Forced : NoAudio #1
ID : 2
Format : AAC
Format/Info : Advanced Audio Codec
Format profile : LC
Codec ID : A_AAC
Duration : 18 min 46 s
Bit rate : 192 kb/s
Channel(s) : 2 channels
Channel positions : Front: L R
Sampling rate : 48.0 kHz
Frame rate : 46.875 FPS (1024 spf)
Compression mode : Lossy
Stream size : 25.8 MiB (8%)
Title : ViruseProject
Language : Russian
Default : No
Forced : NoAudio #2
ID : 3
Format : AC-3
Format/Info : Audio Coding 3
Format settings, Endianness : Big
Codec ID : A_AC3
Duration : 18 min 47 s
Bit rate mode : Constant
Bit rate : 384 kb/s
Channel(s) : 6 channels
Channel positions : Front: L C R, Side: L R, LFE
Sampling rate : 48.0 kHz
Frame rate : 31.250 FPS (1536 spf)
Bit depth : 16 bits
Compression mode : Lossy
Stream size : 51.6 MiB (17%)
Language : Japanese
Service kind : Complete Main
Default : No
Forced : NoText #1
ID : 4
Format : UTF-8
Codec ID : S_TEXT/UTF8
Codec ID/Info : UTF-8 Plain Text
Duration : 18 min 59 s
Bit rate : 58 b/s
Count of elements : 195
Stream size : 8.15 KiB (0%)
Title : ViruseProject
Language : Russian
Default : No
Forced : NoText #2
ID : 5
Format : UTF-8
Codec ID : S_TEXT/UTF8
Codec ID/Info : UTF-8 Plain Text
Duration : 18 min 24 s
Bit rate : 32 b/s
Count of elements : 194
Stream size : 4.33 KiB (0%)
Language : English
Default : No
Forced : NoText #3
ID : 6
Format : UTF-8
Codec ID : S_TEXT/UTF8
Codec ID/Info : UTF-8 Plain Text
Duration : 18 min 39 s
Bit rate : 35 b/s
Count of elements : 195
Stream size : 4.86 KiB (0%)
Language : Spanish
Default : No
Forced : NoText #4
ID : 7
Format : UTF-8
Codec ID : S_TEXT/UTF8
Codec ID/Info : UTF-8 Plain Text
Duration : 18 min 22 s
Bit rate : 61 b/s
Count of elements : 231
Stream size : 8.30 KiB (0%)
Language : Japanese
Default : No
Forced : NoText #5
ID : 8
Format : UTF-8
Codec ID : S_TEXT/UTF8
Codec ID/Info : UTF-8 Plain Text
Duration : 18 min 39 s
Bit rate : 29 b/s
Count of elements : 196
Stream size : 4.05 KiB (0%)
Title : Simplified
Language : Chinese
Default : No
Forced : NoText #6
ID : 9
Format : UTF-8
Codec ID : S_TEXT/UTF8
Codec ID/Info : UTF-8 Plain Text
Duration : 18 min 39 s
Bit rate : 29 b/s
Count of elements : 196
Stream size : 4.09 KiB (0%)
Title : Traditional
Language : Chinese
Default : No
Forced : No

Скриншоты

Скачать

Скачать бесплатно и на максимальной скорости!

Как скачивать? · Что такое торрент? · Рейтинг и ограничения




Вы не можете начинать темы
Вы не можете отвечать на сообщения
Вы не можете редактировать свои сообщения
Вы не можете удалять свои сообщения
Вы не можете голосовать в опросах
Вы не можете прикреплять файлы к сообщениям
Вы не можете скачивать файлы