Война миров: Голиаф / War of the Worlds: Goliath / War of the Worlds Goliath (Джо Пирсон) [Movie] [1 из 1] [Без хардсаба] [RUS(int), JAP+SUB] [2012, аниме, мультфильм, фантастика, боевик, приключения, BDRip] [720p]


Размер:  1.72 GB   |    Зарегистрирован:  4 месяца 25 дней   |    Скачан:  0 раз
Сидов:  1  [  0 KB/s  ]   Подробная статистика пиров
by lev99 ®
23-Мар-2018 14:32

[Цитировать]

Война миров: Голиаф / War of the Worlds: Goliath / War of the Worlds Goliath (Джо Пирсон) [Movie] [1 из 1] [Без хардсаба] [RUS(int), JAP+SUB] [2012, аниме, мультфильм, фантастика, боевик, приключения, BDRip] [720p]

Война миров: Голиаф / War of the Worlds: Goliath / War of the Worlds Goliath
Страна: Малайзия, Япония, США
Год выпуска: 2012 г.
Жанр: аниме, мультфильм, фантастика, боевик, приключения
Тип: Movie
Эпизоды: 1 из 1
Продолжительность: 88 мин.
Режиссер: Джо Пирсон
Описание: 15 лет прошло с первого неудачного вторжения марсиан на Землю. Год 1914, канун Первой мировой войны, Марс начинает внезапную и более разрушительную вторую атаку. Малочисленные силы обороны являются единственной надеждой Земли. Грандиозный боевой треножник под названием ГОЛИАФ призван на войну, и его юный многонациональной экипаж должен встретиться со своими страхами в бою лицом к лицу, чтобы спасти человечество от инопланетных захватчиков
Доп. информация: Сохранены оригинальные главы
Качество: BDRip
Тип релиза: Без хардсаба
Формат видео: MKV
Релиз/Автор рипа: GSGroup / lev99
Видео: x264@L4.1, 1280x720 (16:9), 23.970 fps, 2396 kbps, 0.108 bit/pixel, 8 bit
Аудио: AAC, 192 Kbps, 48.0Hz, 2 ch Язык: Русский (в составе контейнера);
Озвучка: двухголосная (женская & мужская) Persona99 & Molodoy
Аудио 2: AAC, 192 Kbps, 48.0Hz, 2 ch Язык: Японский (в составе контейнера);
Озвучка 2: Оригинальная
Субтитры: ASS встроенные в составе контейнера(Full);

MediaInfo

Общее
Уникальный идентификатор : 197910163179549872682489755439030990791 (0x94E41C67A6F1BA192CA83FC798A9F7C7)
Полное имя : \[lev99] War of the Worlds Goliath [Persona99 & Molodoy]\[lev99] War of the Worlds Goliath [BDrip 1280x720 x264 AAC].mkv
Формат : Matroska
Версия формата : Version 4 / Version 2
Размер файла : 1,72 Гбайт
Продолжительность : 1 ч. 28 м.
Общий поток : 2784 Кбит/сек
Название фильма : War of the Worlds: Goliath 2012
Дата кодирования : UTC 2018-03-23 14:22:52
Программа кодирования : mkvmerge v21.0.0 ('Tardigrades Will Inherit The Earth') 64-bit
Библиотека кодирования : libebml v1.3.5 + libmatroska v1.4.8
Обложка : Yes
Attachments : cover.jpg
Видео
Идентификатор : 1
Формат : AVC
Формат/Информация : Advanced Video Codec
Профиль формата : High@L4.1
Настройки формата : CABAC / 9 Ref Frames
Параметр CABAC формата : Да
Параметр RefFrames формата : 9 кадров
Идентификатор кодека : V_MPEG4/ISO/AVC
Продолжительность : 1 ч. 28 м.
Битрейт : 2396 Кбит/сек
Ширина : 1280 пикселей
Высота : 720 пикселей
Соотношение сторон : 16:9
Режим частоты кадров : Постоянный
Частота кадров : 23,976 (24000/1001) кадра/сек
Цветовое пространство : YUV
Субдискретизация насыщенности : 4:2:0
Битовая глубина : 8 бит
Тип развёртки : Прогрессивная
Бит/(Пиксели*Кадры) : 0.108
Размер потока : 1,48 Гбайт (86%)
Библиотека кодирования : x264 core 155 r2901 7d0ff22
Настройки программы : cabac=1 / ref=9 / deblock=1:1:-1 / analyse=0x3:0x133 / me=umh / subme=10 / psy=1 / psy_rd=0.40:0.00 / mixed_ref=1 / me_range=24 / chroma_me=1 / trellis=2 / 8x8dct=1 / cqm=0 / deadzone=21,11 / fast_pskip=1 / chroma_qp_offset=-2 / threads=2 / lookahead_threads=1 / sliced_threads=0 / nr=0 / decimate=1 / interlaced=0 / bluray_compat=0 / constrained_intra=0 / bframes=10 / b_pyramid=2 / b_adapt=2 / b_bias=0 / direct=1 / weightb=1 / open_gop=0 / weightp=2 / keyint=240 / keyint_min=23 / scenecut=40 / intra_refresh=0 / rc_lookahead=60 / rc=crf / mbtree=1 / crf=18.0 / qcomp=0.80 / qpmin=0 / qpmax=69 / qpstep=4 / vbv_maxrate=50000 / vbv_bufsize=62500 / crf_max=0.0 / nal_hrd=none / filler=0 / ip_ratio=1.40 / aq=1:0.60
Язык : Japanese
Default : Да
Forced : Нет
Цветовой диапазон : Limited
Основные цвета : BT.709
Характеристики трансфера : BT.709
Коэффициенты матрицы : BT.709
Аудио #1
Идентификатор : 2
Формат : AAC
Формат/Информация : Advanced Audio Codec
Профиль формата : LC
Идентификатор кодека : A_AAC-2
Продолжительность : 1 ч. 28 м.
Битрейт : 192 Кбит/сек
Каналы : 2 канала
Расположение каналов : Front: L R
Частота : 48,0 КГц
Частота кадров : 46,875 кадров/сек (1024 SPF)
Метод сжатия : С потерями
Задержка видео : 21 мс.
Размер потока : 121 Мбайт (7%)
Заголовок : Persona99 & Molodoy
Язык : Russian
Default : Да
Forced : Нет
Аудио #2
Идентификатор : 3
Формат : AAC
Формат/Информация : Advanced Audio Codec
Профиль формата : LC
Идентификатор кодека : A_AAC-2
Продолжительность : 1 ч. 28 м.
Битрейт : 192 Кбит/сек
Каналы : 2 канала
Расположение каналов : Front: L R
Частота : 48,0 КГц
Частота кадров : 46,875 кадров/сек (1024 SPF)
Метод сжатия : С потерями
Задержка видео : 21 мс.
Размер потока : 121 Мбайт (7%)
Язык : Japanese
Default : Нет
Forced : Нет
Текст
Идентификатор : 4
Формат : ASS
Идентификатор кодека : S_TEXT/ASS
Идентификатор кодека/Информация : Advanced Sub Station Alpha
Продолжительность : 1 ч. 19 м.
Битрейт : 99 бит/сек
ElementCount : 724
Метод сжатия : Без потерь
Размер потока : 57,6 Кбайт (0%)
Язык : Russian
Default : Нет
Forced : Нет
Меню
00:00:00.000 : en:Chapter 01
00:03:50.188 : en:Chapter 02
00:07:31.284 : en:Chapter 03
00:10:18.576 : en:Chapter 04
00:15:02.902 : en:Chapter 05
00:15:45.570 : en:Chapter 06
00:18:06.502 : en:Chapter 07
00:20:01.534 : en:Chapter 08
00:24:02.441 : en:Chapter 09
00:25:13.512 : en:Chapter 10
00:27:01.620 : en:Chapter 11
00:33:59.037 : en:Chapter 12
00:35:06.438 : en:Chapter 13
00:35:46.644 : en:Chapter 14
00:37:02.053 : en:Chapter 15
00:38:14.292 : en:Chapter 16
00:40:25.423 : en:Chapter 17
00:45:49.747 : en:Chapter 18
00:46:48.848 : en:Chapter 19
00:50:33.030 : en:Chapter 20
00:55:02.299 : en:Chapter 21
01:03:19.796 : en:Chapter 22
01:06:27.984 : en:Chapter 23
01:10:11.207 : en:Chapter 24
01:15:47.543 : en:Chapter 25
01:23:48.023 : en:Chapter 26

Скриншоты




Вы не можете начинать темы
Вы не можете отвечать на сообщения
Вы не можете редактировать свои сообщения
Вы не можете удалять свои сообщения
Вы не можете голосовать в опросах
Вы не можете прикреплять файлы к сообщениям
Вы можете скачивать файлы