За облаками / Kumo no Mukou, Yakusoku no Basho (Синкай Макото) [Movie] [1 из 1] [Без хардсаба] [RUS(int), JAP+SUB] [2004, фантастика, романтика, драма, BDRip] [1080p]


Размер:  2.87 GB   |    Зарегистрирован:  5 месяцев 26 дней   |    Скачан:  0 раз

Полного источника не было: 19 дней

by lev99 ®
23-Мар-2018 08:44

[Цитировать]

За облаками / Kumo no Mukou, Yakusoku no Basho (Синкай Макото) [Movie] [1 из 1] [Без хардсаба] [RUS(int), JAP+SUB] [2004, фантастика, романтика, драма, BDRip] [1080p]

За облаками / Kumo no Mukou, Yakusoku no Basho / The Place Promised in Our Early Days / Beyond the Clouds, The Promised Place
Страна: Япония
Год выпуска: 2004 г.
Жанр: фантастика, романтика, драма
Тип: Movie
Эпизоды: 1 из 1
Продолжительность: 90 мин.
Режиссер: Синкай Макото
Студия: CoMix Wave Inc. / asread
Описание: Согласно альтернативному варианту развития истории, после поражения во второй мировой войне Япония оказалась разделённой между союзниками - северный остров Хоккайдо аннексировал Советский Союз, а Хонсю и другими южными островами овладели американцы. Летом 1996 года Советы начали сооружать в своей зоне оккупации загадочное сооружение - башню столь исполинских размеров, что трое товарищей-старшеклассников с американского Хонсю, гуляющих вместе в пору школьных каникул, могли отчётливо видеть её контуры, возносящиеся в заоблачную высь. Друзья дали друг другу зарок, что однажды они построят аэроплан и раскроют секрет гигантской башни, но все планы рухнули, когда красавица Саюри Саватари, предмет тайных воздыханий двух её друзей, начала испытывать симптомы странной сонной болезни, и её отправили на лечение в Токио, а после окончания средней школы пути ребят разошлись. Спустя три года повзрослевший Хироки Фудзисава случайно узнаёт, что Саюри с тех пор пребывает в коме, и обращается за помощью к своему прежнему закадычному другу Такуя Сиракава, чтобы привести девушку в себя. Он ещё не знает, что бессознательное состояние Саюри напрямую связано с таинственной северной башней... © Алексей Фадеев, World Art
Возраст: 14+
Рейтинг MPAA: PG-13
- world-art - | - kinopoisk -
Доп. информация: Сохранены оригинальные главы
Качество: BDRip (источник: Blu-ray Disc)
Тип релиза: Без хардсаба
Формат видео: MKV
Автор рипа: lev99
Видео: x264@L4.1, 1920x1080(16:9), 23.976 fps, 4153 kbps, 0.084 bit/pixel, 8 bit
Аудио: AAC, 192 Kbps, 48.0Hz, 2 ch Язык: Русский (в составе контейнера); Озвучка: дубляж от XL-Media
Аудио 2: AAC, 192 Kbps, 48.0Hz, 2 ch Язык: Японский (в составе контейнера); Озвучка 2: Оригинальная
Субтитры: ASS встроенные в составе контейнера(надписи/Full); Перевод: Ker

MediaInfo

Общее
Уникальный идентификатор : 58555535314773959175481879373605309059 (0x2C0D62C9817D2AF0E7AC88DE94110A83)
Полное имя : \[lev99] Kumo no Mukou, Yakusoku no Basho 2004 [BDRip 1080p]\[lev99] Kumo no Mukou, Yakusoku no Basho [BDRip 1080p x264 AAС].mkv
Формат : Matroska
Версия формата : Version 4 / Version 2
Размер файла : 2,87 Гбайт
Продолжительность : 1 ч. 30 м.
Общий поток : 4544 Кбит/сек
Название фильма : Kumo no Mukou, Yakusoku no Basho / 2004
Дата кодирования : UTC 2018-03-23 07:25:00
Программа кодирования : mkvmerge v21.0.0 ('Tardigrades Will Inherit The Earth') 64-bit
Библиотека кодирования : libebml v1.3.5 + libmatroska v1.4.8
Обложка : Yes
Attachments : cover.jpg / ALBR_0.ttf / Aquarelle.ttf / calibrib.ttf / comicbd.ttf / neucha.otf / palab.ttf / 1862.ttf
Видео
Идентификатор : 1
Формат : AVC
Формат/Информация : Advanced Video Codec
Профиль формата : High@L4.1
Настройки формата : CABAC / 4 Ref Frames
Параметр CABAC формата : Да
Параметр RefFrames формата : 4 кадра
Идентификатор кодека : V_MPEG4/ISO/AVC
Продолжительность : 1 ч. 30 м.
Битрейт : 4153 Кбит/сек
Ширина : 1920 пикселей
Высота : 1080 пикселей
Соотношение сторон : 16:9
Режим частоты кадров : Постоянный
Частота кадров : 23,976 (24000/1001) кадра/сек
Цветовое пространство : YUV
Субдискретизация насыщенности : 4:2:0
Битовая глубина : 8 бит
Тип развёртки : Прогрессивная
Бит/(Пиксели*Кадры) : 0.084
Размер потока : 2,62 Гбайт (91%)
Библиотека кодирования : x264 core 155 r2901 7d0ff22
Настройки программы : cabac=1 / ref=4 / deblock=1:1:-1 / analyse=0x3:0x133 / me=umh / subme=10 / psy=1 / psy_rd=1.00:0.00 / mixed_ref=1 / me_range=24 / chroma_me=1 / trellis=2 / 8x8dct=1 / cqm=0 / deadzone=21,11 / fast_pskip=1 / chroma_qp_offset=-2 / threads=18 / lookahead_threads=1 / sliced_threads=0 / nr=0 / decimate=1 / interlaced=0 / bluray_compat=0 / constrained_intra=0 / bframes=3 / b_pyramid=2 / b_adapt=2 / b_bias=0 / direct=1 / weightb=0 / open_gop=0 / weightp=2 / keyint=240 / keyint_min=23 / scenecut=40 / intra_refresh=0 / rc_lookahead=60 / rc=crf / mbtree=1 / crf=18.0 / qcomp=0.80 / qpmin=0 / qpmax=69 / qpstep=4 / vbv_maxrate=50000 / vbv_bufsize=62500 / crf_max=0.0 / nal_hrd=none / filler=0 / ip_ratio=1.40 / aq=1:1.00
Язык : Japanese
Default : Да
Forced : Нет
Цветовой диапазон : Limited
Основные цвета : BT.709
Характеристики трансфера : BT.709
Коэффициенты матрицы : BT.709
Аудио #1
Идентификатор : 2
Формат : AAC
Формат/Информация : Advanced Audio Codec
Профиль формата : LC
Идентификатор кодека : A_AAC-2
Продолжительность : 1 ч. 30 м.
Битрейт : 192 Кбит/сек
Каналы : 2 канала
Расположение каналов : Front: L R
Частота : 48,0 КГц
Частота кадров : 46,875 кадров/сек (1024 SPF)
Метод сжатия : С потерями
Задержка видео : 21 мс.
Размер потока : 124 Мбайт (4%)
Заголовок : XL-Media
Язык : Russian
Default : Да
Forced : Нет
Аудио #2
Идентификатор : 3
Формат : AAC
Формат/Информация : Advanced Audio Codec
Профиль формата : LC
Идентификатор кодека : A_AAC-2
Продолжительность : 1 ч. 30 м.
Битрейт : 192 Кбит/сек
Каналы : 2 канала
Расположение каналов : Front: L R
Частота : 48,0 КГц
Частота кадров : 46,875 кадров/сек (1024 SPF)
Метод сжатия : С потерями
Задержка видео : 21 мс.
Размер потока : 124 Мбайт (4%)
Заголовок : Original
Язык : Japanese
Default : Нет
Forced : Нет
Текст #1
Идентификатор : 4
Формат : ASS
Идентификатор кодека : S_TEXT/ASS
Идентификатор кодека/Информация : Advanced Sub Station Alpha
Продолжительность : 1 ч. 28 м.
Битрейт : 3 бит/сек
ElementCount : 25
Метод сжатия : Без потерь
Размер потока : 2,52 Кбайт (0%)
Заголовок : надписи
Язык : Russian
Default : Да
Forced : Нет
Текст #2
Идентификатор : 5
Формат : ASS
Идентификатор кодека : S_TEXT/ASS
Идентификатор кодека/Информация : Advanced Sub Station Alpha
Продолжительность : 1 ч. 29 м.
Битрейт : 129 бит/сек
ElementCount : 1020
Метод сжатия : Без потерь
Размер потока : 84,7 Кбайт (0%)
Заголовок : [Ker] Full
Язык : Russian
Default : Нет
Forced : Нет
Меню
00:00:00.000 : en::Avant
00:01:42.936 : en::Part A
00:10:58.283 : en::Part B
00:14:03.843 : en::Part C
00:18:44.749 : en::Part D
00:21:42.927 : en::Part E
00:26:56.240 : en::Part F
00:32:44.796 : en::Part G
00:36:06.998 : en::Part H
00:42:15.533 : en::Part I
00:48:07.093 : en::Part J
00:50:28.025 : en::Part K
00:57:43.669 : en::Part L
01:02:50.976 : en::Part M
01:07:35.051 : en::Part N
01:14:44.689 : en::Part O
01:19:30.224 : en::Part P
01:25:24.953 : en::ED

Скриншоты




Вы не можете начинать темы
Вы не можете отвечать на сообщения
Вы не можете редактировать свои сообщения
Вы не можете удалять свои сообщения
Вы не можете голосовать в опросах
Вы не можете прикреплять файлы к сообщениям
Вы можете скачивать файлы