Связь Душ / Soul Link (Токоро Тосикацу) [TV] [12 из 12] [Без хардсаба] [RUS(int), JAP, SUB] [2006, приключения, романтика, фантастика, драма, DVDRip] [480p]


Размер:  2.99 GB   |    Зарегистрирован:  3 месяца 24 дня   |    Скачан:  1 раз
Сидов:  9  [  0 KB/s  ]   Личеров:  1  [  0 KB/s  ]   Подробная статистика пиров
by lev99 ®
04-Дек-2017 07:46

[Цитировать]

Связь Душ / Soul Link (Токоро Тосикацу) [TV] [12 из 12] [Без хардсаба] [RUS(int), JAP, SUB] [2006, приключения, романтика, фантастика, драма, DVDRip] [480p]

Связь Душ / Soul Link
Страна: Япония
Год выпуска: 2006 г.
Жанр: приключения, романтика, фантастика, драма
Тип: ТВ (12 эп. + эп.-коллаж), 25 мин.
Режиссер: Токоро Тосикацу
Описание: Космическая станция «Ариес» является научно-исследовательским центром и тренировочной базой для кадетов-астронавтов, а по совместительству – гостиницей для звёздных туристов. Нагасэ Саяка, Айдзава Рёта и Морисаки Нао – курсанты, проходящие практику, Айдзава Сюхэй (старший брат Рёты) получил распределение на «Ариес», Ая Сугимото приехала навестить подругу. Все герои молоды и малоопытны, однако готовы к любым превратностям своей космической судьбы...
- world-art - | - kinopoisk -
Возраст: 16+
Рейтинг MPAA: R
Формат видео: MKV
Качество видео: DVDRip
Релиз/Автор рипа: GSGroup/ReDone
Видео: x264@L5.1, 864x480(16:9), ~1071 kbps, 29,970 fps, 0.086 bit/pixel, 8 bit
Аудио: Vorbis, 192 Kbps, 48.0Hz, 2 ch Язык Русский (в составе контейнера) ; Озвучка: Одноголосная (жен.) Persona99
Аудио 2: Vorbis, 192 Kbps, 48.0Hz, 2 ch Язык Японский ; Озвучка 2: Оригинальная
Субтитры: ASS, встроенные Язык субтитров русский ; Перевод: Rif Robin

Список эпизодов

01. Столкновение
02. Контакт
03. Нападение
04. Дыхание космоса
05. Водораздел
06. Прощание
07. Течение
08. Желание
09. Пробуждение
10. Блуждающий
11. Скорбь
12. Путешествие

MediaInfo

Общее
Уникальный идентификатор : 219801288528181105997154038965709860851 (0xA55C3036FE4D9F3D9F7D079615C86FF3)
Полное имя : \Soul Link DVD lev99\[ReDone] Soul Link - 01 (DVD) [D3C267CC].mkv
Формат : Matroska
Версия формата : Version 4 / Version 2
Размер файла : 257 Мбайт
Продолжительность : 25 м. 27 с.
Режим общего битрейта : Переменный
Общий поток : 1411 Кбит/сек
Дата кодирования : UTC 2017-11-28 18:09:01
Программа кодирования : mkvmerge v18.0.0 ('Apricity') 64-bit
Библиотека кодирования : libebml v1.3.5 + libmatroska v1.4.8
Обложка : Yes
Attachments : cover.jpg
Видео
Идентификатор : 1
Формат : AVC
Формат/Информация : Advanced Video Codec
Профиль формата : High@L5.1
Настройки формата : CABAC / 7 Ref Frames
Параметр CABAC формата : Да
Параметр RefFrames формата : 7 кадров
Идентификатор кодека : V_MPEG4/ISO/AVC
Продолжительность : 25 м. 27 с.
Битрейт : 1070 Кбит/сек
Ширина : 864 пикселя
Высота : 480 пикселей
Соотношение сторон : 16:9
Режим частоты кадров : Постоянный
Частота кадров : 29,970 (29970/1000) кадров/сек
Цветовое пространство : YUV
Субдискретизация насыщенности : 4:2:0
Битовая глубина : 8 бит
Тип развёртки : Прогрессивная
Бит/(Пиксели*Кадры) : 0.086
Размер потока : 195 Мбайт (76%)
Библиотека кодирования : x264 core 54 svn-623M
Настройки программы : cabac=1 / ref=4 / deblock=0:0:0 / analyse=0x3:0x133 / me=umh / subme=7 / brdo=1 / mixed_ref=1 / me_range=20 / chroma_me=1 / trellis=1 / 8x8dct=1 / cqm=0 / deadzone=21,11 / chroma_qp_offset=0 / threads=2 / nr=0 / decimate=0 / mbaff=0 / bframes=4 / b_pyramid=1 / b_adapt=1 / b_bias=0 / direct=3 / wpredb=1 / bime=1 / keyint=250 / keyint_min=25 / scenecut=40(pre) / rc=2pass / bitrate=1070 / ratetol=4.0 / rceq='blurCplx^(1-qComp)' / qcomp=0.60 / qpmin=10 / qpmax=51 / qpstep=4 / cplxblur=20.0 / qblur=0.5 / ip_ratio=1.40 / pb_ratio=1.30 / aq=1:0.4:15.0
Язык : Japanese
Default : Да
Forced : Нет
Аудио #1
Идентификатор : 2
Формат : Vorbis
Параметр Floor формата : 1
Идентификатор кодека : A_VORBIS
Продолжительность : 25 м. 27 с.
Вид битрейта : Переменный
Битрейт : 192 Кбит/сек
Каналы : 2 канала
Частота : 48,0 КГц
Частота кадров : 72,983 кадра/сек (658 SPF)
Метод сжатия : С потерями
Размер потока : 30,4 Мбайт (12%)
Заголовок : Persona99
Библиотека кодирования : aoTuV 20110424 (UTC 2011-04-24)
Язык : Russian
Default : Да
Forced : Нет
Аудио #2
Идентификатор : 3
Формат : Vorbis
Параметр Floor формата : 1
Идентификатор кодека : A_VORBIS
Продолжительность : 25 м. 27 с.
Вид битрейта : Переменный
Битрейт : 192 Кбит/сек
Каналы : 2 канала
Частота : 48,0 КГц
Частота кадров : 73,147 кадра/сек (656 SPF)
Метод сжатия : С потерями
Размер потока : 30,7 Мбайт (12%)
Заголовок : Japanese
Библиотека кодирования : aoTuV 20110424 (UTC 2011-04-24)
Язык : Japanese
Default : Нет
Forced : Нет
Текст
Идентификатор : 4
Формат : ASS
Идентификатор кодека : S_TEXT/ASS
Идентификатор кодека/Информация : Advanced Sub Station Alpha
Продолжительность : 25 м. 20 с.
Битрейт : 160 бит/сек
ElementCount : 365
Метод сжатия : Без потерь
Размер потока : 29,8 Кбайт (0%)
Заголовок : Russian
Язык : Russian
Default : Нет
Forced : Нет
Меню
00:00:00.000 : en:Opening
00:01:30.123 : en:Part 1
00:12:36.123 : en:Part 2
00:23:25.105 : en:Ending
00:24:55.128 : en:Preview

Скриншоты




Вы не можете начинать темы
Вы не можете отвечать на сообщения
Вы не можете редактировать свои сообщения
Вы не можете удалять свои сообщения
Вы не можете голосовать в опросах
Вы не можете прикреплять файлы к сообщениям
Вы можете скачивать файлы