Флотская коллекция / Gekijouban KanColle / Gekijouban Kantai Collection (Кусакава Кэйдзо) [Movie] [1 из 1] [Без хардсаба] [RUS(int), JAP+SUB] [2016, экшен, военный, фантастика, драма, BDRip] [1080p]


Размер:  3.43 GB   |    Зарегистрирован:  4 месяца 27 дней   |    Скачан:  0 раз

Полного источника не было: 9 дней

Личеров:  1  [  0 KB/s  ]   Подробная статистика пиров
by lev99 ®
21-Мар-2018 07:50

[Цитировать]

Флотская коллекция / Gekijouban KanColle / Gekijouban Kantai Collection (Кусакава Кэйдзо) [Movie] [1 из 1] [Без хардсаба] [RUS(int), JAP+SUB] [2016, экшен, военный, фантастика, драма, BDRip] [1080p]

Флотская коллекция / Gekijouban KanColle / Gekijouban Kantai Collection
Страна: Япония
Год выпуска: 2016 г.
Жанр: экшен, военный, фантастика, драма
Тип: полнометражный фильм, 93 мин.
Режиссер: Кусакава Кэйдзо
Студия: Diomedea
Описание: Таинственный враг, появившийся из глубин морей, захватил контроль над всеми морями мира. Только девушки, обладающие душами военных кораблей времен второй мировой войны, могут противостоять "Флоту глубоководного моря". После потери базы, благодаря стратегии Адмирала, девочки-корабли одержали победу, но после их жестоко гобоя, борьба становилась все более ожесточенной. Основываясь на успешной стратегии, в качестве плацдарма, силы стягиваются к югу. Продолжая захватывать новую территорию у противника, он расширяет свой театр боевых действий. Собранные на новой передовой базе, девушки готовятся к следующей миссии. Благодаря успешным боевым действиям и присоединившейся новой боевой мощи, девушки смогли преуспеть в стратегии и были в приподнятом настроении, но оказалось, что в центре боевой зоны произошла серьезная авария. Так что же ожидает девочек-кораблей?
- world-art - | - kinopoisk -
Возраст: 14+
Рейтинг MPAA: PG-13
Доп. информация: Сохранены оригинальные главы, видео взято [Beatrice-Raws]
Качество: BDRip
Тип релиза: Без хардсаба
Формат видео: MKV
Автор рипа: lev99
Видео: x264@L4.1, 1920x1080 (16:9), 23.976 fps, 4890 kbps, 0.098 bit/pixel, 8 bit
Аудио: AAC, 192 Kbps, 48.0Hz, 2 ch Язык: Русский (в составе контейнера);
Озвучка: Одноголосная (жен.) Persona99 / GSGroup
Аудио 2: AAC, 192 Kbps, 48.0Hz, 2 ch Язык: Японский (в составе контейнера);
Озвучка 2: Оригинальная
Субтитры: ASS встроенные в составе контейнера; Перевод: anipaladin

MediaInfo

Общее
Уникальный идентификатор : 171986659264421487343120153241213039279 (0x81636CFB698D049C31C0D4AC0B7972AF)
Полное имя : \[lev99] Gekijouban KanColle 2016 [BDrip 1080p]\[lev99] Gekijouban KanColle [BDrip 1920x1080 x264 AAC].mkv
Формат : Matroska
Версия формата : Version 4 / Version 2
Размер файла : 3,43 Гбайт
Продолжительность : 1 ч. 33 м.
Общий поток : 5278 Кбит/сек
Название фильма : Gekijouban KanColle 2016
Дата кодирования : UTC 2018-03-20 23:19:47
Программа кодирования : mkvmerge v21.0.0 ('Tardigrades Will Inherit The Earth') 64-bit
Библиотека кодирования : libebml v1.3.5 + libmatroska v1.4.8
Обложка : Yes
Attachments : GOTHICBI.TTF / GOTHICI.TTF / GOTHICB.TTF / cover.jpg
Видео
Идентификатор : 1
Формат : AVC
Формат/Информация : Advanced Video Codec
Профиль формата : High@L4.1
Настройки формата : CABAC / 4 Ref Frames
Параметр CABAC формата : Да
Параметр RefFrames формата : 4 кадра
Идентификатор кодека : V_MPEG4/ISO/AVC
Продолжительность : 1 ч. 33 м.
Битрейт : 4890 Кбит/сек
Ширина : 1920 пикселей
Высота : 1080 пикселей
Соотношение сторон : 16:9
Режим частоты кадров : Постоянный
Частота кадров : 23,976 (24000/1001) кадра/сек
Цветовое пространство : YUV
Субдискретизация насыщенности : 4:2:0
Битовая глубина : 8 бит
Тип развёртки : Прогрессивная
Бит/(Пиксели*Кадры) : 0.098
Размер потока : 3,18 Гбайт (93%)
Библиотека кодирования : x264 core 155 r2901 7d0ff22
Настройки программы : cabac=1 / ref=4 / deblock=1:1:1 / analyse=0x3:0x133 / me=umh / subme=10 / psy=1 / psy_rd=0.40:0.00 / mixed_ref=1 / me_range=24 / chroma_me=1 / trellis=2 / 8x8dct=1 / cqm=0 / deadzone=21,11 / fast_pskip=1 / chroma_qp_offset=-2 / threads=18 / lookahead_threads=4 / sliced_threads=0 / nr=0 / decimate=1 / interlaced=0 / bluray_compat=0 / constrained_intra=0 / bframes=10 / b_pyramid=2 / b_adapt=2 / b_bias=0 / direct=1 / weightb=1 / open_gop=0 / weightp=2 / keyint=240 / keyint_min=23 / scenecut=40 / intra_refresh=0 / rc_lookahead=60 / rc=crf / mbtree=1 / crf=16.0 / qcomp=0.80 / qpmin=0 / qpmax=69 / qpstep=4 / vbv_maxrate=50000 / vbv_bufsize=62500 / crf_max=0.0 / nal_hrd=none / filler=0 / ip_ratio=1.40 / aq=1:0.60
Язык : Japanese
Default : Да
Forced : Нет
Цветовой диапазон : Limited
Основные цвета : BT.709
Характеристики трансфера : BT.709
Коэффициенты матрицы : BT.709
Аудио #1
Идентификатор : 2
Формат : AAC
Формат/Информация : Advanced Audio Codec
Профиль формата : LC
Идентификатор кодека : A_AAC-2
Продолжительность : 1 ч. 33 м.
Битрейт : 192 Кбит/сек
Каналы : 2 канала
Расположение каналов : Front: L R
Частота : 48,0 КГц
Частота кадров : 46,875 кадров/сек (1024 SPF)
Метод сжатия : С потерями
Задержка видео : 21 мс.
Размер потока : 128 Мбайт (4%)
Заголовок : Persona99
Язык : Russian
Default : Да
Forced : Нет
Аудио #2
Идентификатор : 3
Формат : AAC
Формат/Информация : Advanced Audio Codec
Профиль формата : LC
Идентификатор кодека : A_AAC-2
Продолжительность : 1 ч. 33 м.
Битрейт : 192 Кбит/сек
Каналы : 2 канала
Расположение каналов : Front: L R
Частота : 48,0 КГц
Частота кадров : 46,875 кадров/сек (1024 SPF)
Метод сжатия : С потерями
Задержка видео : 21 мс.
Размер потока : 128 Мбайт (4%)
Язык : Japanese
Default : Нет
Forced : Нет
Текст
Идентификатор : 4
Формат : ASS
Идентификатор кодека : S_TEXT/ASS
Идентификатор кодека/Информация : Advanced Sub Station Alpha
Продолжительность : 1 ч. 25 м.
Битрейт : 111 бит/сек
ElementCount : 1020
Метод сжатия : Без потерь
Размер потока : 69,9 Кбайт (0%)
Язык : Russian
Default : Нет
Forced : Нет
Меню
00:00:00.000 : en:Avant
00:10:07.523 : en:Part A
00:11:41.450 : en:Part B
00:15:07.865 : en:Part C
00:20:00.324 : en:Part D
00:23:56.101 : en:Part E
00:31:35.768 : en:Part F
00:36:14.714 : en:Part G
00:43:57.009 : en:Part H
00:53:14.399 : en:Part I
00:57:32.782 : en:Part J
01:03:15.333 : en:Part K
01:05:36.015 : en:Part L
01:12:05.404 : en:Part M
01:21:00.438 : en:Part N
01:23:59.451 : en:Part O
01:27:08.056 : en:ED
01:32:12.860 : en:Part P

Скриншоты




Вы не можете начинать темы
Вы не можете отвечать на сообщения
Вы не можете редактировать свои сообщения
Вы не можете удалять свои сообщения
Вы не можете голосовать в опросах
Вы не можете прикреплять файлы к сообщениям
Вы можете скачивать файлы