Оборотни / Jin-Roh / Jin Roh: The Wolf Brigade (Окиура Хироюки) [Movie] [1 из 1] [Без хардсаба] [RUS(ext), JAP+SUB] [1999, драма, триллер, фантастика, BDRip] [1080p]


Размер:  3.37 GB   |    Зарегистрирован:  5 месяцев 6 дней   |    Скачан:  0 раз
Сидов:  1  [  0 KB/s  ]   Подробная статистика пиров
by lev99 ®
13-Мар-2018 08:37

[Цитировать]

Оборотни / Jin-Roh / Jin Roh: The Wolf Brigade (Окиура Хироюки) [Movie] [1 из 1] [Без хардсаба] [RUS(ext), JAP+SUB] [1999, драма, триллер, фантастика, BDRip] [1080p]

Оборотни / Jin-Rou / Волчья стая / Jin Roh: The Wolf Brigade
Страна: Япония
Год выпуска: 1999 г.
Жанр: драма, триллер, фантастика
Тип: полнометражный фильм, 102 мин.
Режиссер: Окиура Хироюки
Студия: Production I.G
Описание: На одном из заданий спецназовец Фусэ из элитного "Бронеотряда Церберы" невольно становится причиной гибели юной террористки. Девушка взрывает себя у него на глазах. А вскоре он, казалось бы, случайно знакомится с её старшей сестрой, и у них начинается роман... Роман, похожий на страшную сказку о Красной Шапочке, старинную книгу с которой дарит Фусе его новая подруга. И с каждой прочитанной страницей мир вокруг них начинает меняться и рушиться. Водоворот событий - обман и неотличимая от обмана правда, предательство и политические интриги, сны и галлюцинации, хищники и жертвы - все вместе выплескивается в трагический финал, лишний раз доказывающий, что наиболее опасное из всех животных - человек.
- world-art - | - kinopoisk -
Возраст: 18+
Рейтинг MPAA: NC-17
Доп. информация: Сохранены оригинальные главы, взята у TolstiyMob BDRemux
Качество: BDRip
Тип релиза: Без хардсаба
Формат видео: MKV
Автор рипа: lev99
Видео: x264@L4.1, 1920x1080 (16:9), 23.976 fps, 4149 kbps, 0.083 bit/pixel, 8 bit
Аудио: AAC, 192 Kbps, 48.0Hz, 2 ch Язык Русский (внешним файлом) ; Озвучка: многоголосая от MC Entertainment
Аудио 2: AAC, 192 Kbps, 48.0Hz, 2 ch Язык Русский (внешним файлом) ; Озвучка 2: одноголосая (муж.) П. Гланца
Аудио 3: AAC, 192 Kbps, 48.0Hz, 2 ch Язык Японский ; Озвучка 3: Оригинальная
Субтитры: ASS, SRT внешним файлом (Full) Язык субтитров русский ; Перевод: ASS Сергея 'Nomad' Рыгина, SRT - Multiple authors Jin-Roh v1 R5

MediaInfo

Общее
Уникальный идентификатор : 49265305017363121795224935639423862875 (0x25102711CAB22CBF964EE0B3B55B485B)
Полное имя : D:\downloads\[lev99] Jin Roh 1999 [BDrip 1080p]\[lev99] Jin Roh 1999 [BDrip 1920x1080 x264 AAC].mkv
Формат : Matroska
Версия формата : Version 4 / Version 2
Размер файла : 3,10 Гбайт
Продолжительность : 1 ч. 42 м.
Общий поток : 4340 Кбит/сек
Название фильма : Jin Roh: The Wolf Brigade 1999
Дата кодирования : UTC 2018-03-13 11:39:12
Программа кодирования : mkvmerge v21.0.0 ('Tardigrades Will Inherit The Earth') 64-bit
Библиотека кодирования : libebml v1.3.5 + libmatroska v1.4.8
Обложка : Yes
Attachments : cover.jpg
Видео
Идентификатор : 1
Формат : AVC
Формат/Информация : Advanced Video Codec
Профиль формата : High@L4.1
Настройки формата : CABAC / 4 Ref Frames
Параметр CABAC формата : Да
Параметр RefFrames формата : 4 кадра
Идентификатор кодека : V_MPEG4/ISO/AVC
Продолжительность : 1 ч. 42 м.
Битрейт : 4149 Кбит/сек
Ширина : 1920 пикселей
Высота : 1080 пикселей
Соотношение сторон : 16:9
Режим частоты кадров : Постоянный
Частота кадров : 23,976 (24000/1001) кадра/сек
Цветовое пространство : YUV
Субдискретизация насыщенности : 4:2:0
Битовая глубина : 8 бит
Тип развёртки : Прогрессивная
Бит/(Пиксели*Кадры) : 0.083
Размер потока : 2,96 Гбайт (96%)
Библиотека кодирования : x264 core 155 r2901 7d0ff22
Настройки программы : cabac=1 / ref=4 / deblock=1:0:0 / analyse=0x3:0x133 / me=umh / subme=10 / psy=1 / psy_rd=1.00:0.00 / mixed_ref=1 / me_range=24 / chroma_me=1 / trellis=2 / 8x8dct=1 / cqm=0 / deadzone=21,11 / fast_pskip=1 / chroma_qp_offset=-2 / threads=18 / lookahead_threads=3 / sliced_threads=0 / nr=0 / decimate=1 / interlaced=0 / bluray_compat=0 / constrained_intra=0 / bframes=8 / b_pyramid=2 / b_adapt=2 / b_bias=0 / direct=3 / weightb=1 / open_gop=0 / weightp=2 / keyint=240 / keyint_min=23 / scenecut=4 / intra_refresh=0 / rc_lookahead=60 / rc=2pass / mbtree=1 / bitrate=4149 / ratetol=1.0 / qcomp=0.80 / qpmin=0 / qpmax=69 / qpstep=4 / cplxblur=20.0 / qblur=0.5 / vbv_maxrate=50000 / vbv_bufsize=62500 / nal_hrd=none / filler=0 / ip_ratio=1.40 / aq=1:1.00
Язык : Japanese
Default : Да
Forced : Нет
Цветовой диапазон : Limited
Основные цвета : BT.709
Характеристики трансфера : BT.709
Коэффициенты матрицы : BT.709
Аудио
Идентификатор : 2
Формат : AAC
Формат/Информация : Advanced Audio Codec
Профиль формата : LC
Идентификатор кодека : A_AAC-2
Продолжительность : 1 ч. 42 м.
Битрейт : 192 Кбит/сек
Каналы : 2 канала
Расположение каналов : Front: L R
Частота : 48,0 КГц
Частота кадров : 46,875 кадров/сек (1024 SPF)
Метод сжатия : С потерями
Задержка видео : 21 мс.
Размер потока : 140 Мбайт (4%)
Язык : Japanese
Default : Да
Forced : Нет
Меню
00:00:00.000 : en:Chapter 01
00:03:30.210 : en:Chapter 02
00:16:32.992 : en:Chapter 03
00:21:11.437 : en:Chapter 04
00:23:44.673 : en:Chapter 05
00:26:50.651 : en:Chapter 06
00:29:25.764 : en:Chapter 07
00:31:15.040 : en:Chapter 08
00:33:49.903 : en:Chapter 09
00:41:24.982 : en:Chapter 10
00:49:00.396 : en:Chapter 11
00:53:06.225 : en:Chapter 12
01:02:53.520 : en:Chapter 13
01:10:34.605 : en:Chapter 14
01:18:24.742 : en:Chapter 15
01:23:46.730 : en:Chapter 16
01:32:00.265 : en:Chapter 17
01:36:42.130 : en:Chapter 18



Вы не можете начинать темы
Вы не можете отвечать на сообщения
Вы не можете редактировать свои сообщения
Вы не можете удалять свои сообщения
Вы не можете голосовать в опросах
Вы не можете прикреплять файлы к сообщениям
Вы можете скачивать файлы