Агент Вексилл / Vexille: 2077 Nihon Sakoku (Сори Фумихико) [Movie] [1 из 1] [Без хардсаба] [RUS(int), JAP+SUB] [2007, киберпак, меха, приключения, фантастика, BDRip] [1080p]


Размер:  2.93 GB   |    Зарегистрирован:  6 месяцев 9 дней   |    Скачан:  0 раз

Полного источника не было: 19 дней

by lev99 ®
09-Мар-2018 14:07

[Цитировать]

Агент Вексилл / Vexille: 2077 Nihon Sakoku (Сори Фумихико) [Movie] [1 из 1] [Без хардсаба] [RUS(int), JAP+SUB] [2007, киберпак, меха, приключения, фантастика, BDRip] [1080p]

Агент Вексилл / Vexille: 2077 Nihon Sakoku
Страна: Япония
Год выпуска: 2007 г.
Жанр: киберпак, меха, приключения, фантастика
Тип: Movie
Эпизоды: 1 из 1
Продолжительность: 110 мин.
Режиссер: Сори Фумихико
Описание: Действие фильма происходит в 2077 году. За 10 лет до этого Япония вышла из ООН и отгородилась от мира магнитным полем. Поводом для этого послужила резолюция ООН, которая запретила дальнейшее развитие робототехники и биотехнологий, угрожающих существованию человечества.
И вот правительство США посылает в Японию спецподразделение SWORD под командованием женщины по имени Vexille. Задание — узнать, что за эти 10 лет случилось в Стране Восходящего Солнца, где запретные науки развивались абсолютно бесконтрольно. Однако оказывается, что тайны одна за одной скрывают другую и все это ведет к драматическому финалу…
Возраст: 14+
Рейтинг MPAA: PG-13
- world-art - | - kinopoisk -
Доп. информация: Сохранены оригинальные главы. Видео взято [Qualer].
Агент Вексилл / Vexille: 2077 Nihon Sakoku [2007] [Movie]
ТО - Эллиптическая орбита & Планета симбионтов / TO - Elliptical Orbit & Symbiotic Planet [2009] [OVA]
Эпоха Дракона: Рождение Искательницы / Dragon Age: Dawn of the Seeker / Dragon Age: Blood Mage no Seisen [2012] [Movie]

Качество: BDRip
Тип релиза: Без хардсаба
Формат видео: MKV
Автор рипа: lev99
Видео: x264@L4.1, 1920x1080 (16:9), 23.976 fps, 3245 kbps, 0.065 bit/pixel, 8 bit
Аудио: AAC, 192 Kbps, 48.0Hz, 2 ch Язык: Русский (в составе контейнера);
Озвучка: многоголосая от Музыкальный центр
Аудио 2: AAC, 192 Kbps, 48.0Hz, 2 ch Язык: Русский (в составе контейнера);
Озвучка 2: одноголосая (муж.) от Animebest
Аудио 3: AAC, 192 Kbps, 48.0Hz, 2 ch Язык: Японский (в составе контейнера);
Озвучка 3: Оригинальная
Субтитры: SRT встроенные в составе контейнера (FULL);
Автор: darkdiman & Saturos

Скриншоты

MediaInfo

Общее
Уникальный идентификатор : 321752857874406270606997297925114328231 (0xF20F58AB8626A207C18A0792832474A7)
Полное имя : \[lev99] Vexille 2077 Nihon Sakoku [BDRip 1080p]\[lev99] Vexille 2077 Nihon Sakoku [BDRip 1920x1080 x264 AAC].mkv
Формат : Matroska
Версия формата : Version 4 / Version 2
Размер файла : 2,93 Гбайт
Продолжительность : 1 ч. 49 м.
Общий поток : 3825 Кбит/сек
Название фильма : Vexille 2077 Nihon Sakoku
Дата кодирования : UTC 2018-03-09 13:36:57
Программа кодирования : mkvmerge v21.0.0 ('Tardigrades Will Inherit The Earth') 64-bit
Библиотека кодирования : libebml v1.3.5 + libmatroska v1.4.8
Обложка : Yes
Attachments : cover.jpg
Видео
Идентификатор : 1
Формат : AVC
Формат/Информация : Advanced Video Codec
Профиль формата : High@L4.1
Настройки формата : CABAC / 4 Ref Frames
Параметр CABAC формата : Да
Параметр RefFrames формата : 4 кадра
Идентификатор кодека : V_MPEG4/ISO/AVC
Продолжительность : 1 ч. 49 м.
Битрейт : 3245 Кбит/сек
Ширина : 1920 пикселей
Высота : 1080 пикселей
Соотношение сторон : 16:9
Соотношение сторон в оригинале : 16:9
Режим частоты кадров : Постоянный
Частота кадров : 23,976 (24000/1001) кадра/сек
Цветовое пространство : YUV
Субдискретизация насыщенности : 4:2:0
Битовая глубина : 8 бит
Тип развёртки : Прогрессивная
Бит/(Пиксели*Кадры) : 0.065
Размер потока : 2,49 Гбайт (85%)
Библиотека кодирования : x264 core 152 r2851 ba24899
Настройки программы : cabac=1 / ref=4 / deblock=1:1:1 / analyse=0x3:0x133 / me=umh / subme=10 / psy=1 / psy_rd=0.40:0.00 / mixed_ref=1 / me_range=24 / chroma_me=1 / trellis=2 / 8x8dct=1 / cqm=0 / deadzone=21,11 / fast_pskip=1 / chroma_qp_offset=-2 / threads=18 / lookahead_threads=4 / sliced_threads=0 / nr=0 / decimate=1 / interlaced=0 / bluray_compat=0 / constrained_intra=0 / bframes=10 / b_pyramid=2 / b_adapt=2 / b_bias=0 / direct=3 / weightb=1 / open_gop=0 / weightp=2 / keyint=240 / keyint_min=23 / scenecut=40 / intra_refresh=0 / rc_lookahead=60 / rc=crf / mbtree=1 / crf=18.0 / qcomp=0.60 / qpmin=0 / qpmax=69 / qpstep=4 / vbv_maxrate=50000 / vbv_bufsize=62500 / crf_max=0.0 / nal_hrd=none / filler=0 / ip_ratio=1.40 / aq=1:0.60
Язык : Japanese
Default : Да
Forced : Нет
Цветовой диапазон : Limited
Основные цвета : BT.709
Характеристики трансфера : BT.709
Коэффициенты матрицы : BT.709
Аудио #1
Идентификатор : 2
Формат : AAC
Формат/Информация : Advanced Audio Codec
Профиль формата : LC
Идентификатор кодека : A_AAC-2
Продолжительность : 1 ч. 49 м.
Битрейт : 192 Кбит/сек
Каналы : 2 канала
Расположение каналов : Front: L R
Частота : 48,0 КГц
Частота кадров : 46,875 кадров/сек (1024 SPF)
Метод сжатия : С потерями
Задержка видео : 21 мс.
Размер потока : 151 Мбайт (5%)
Заголовок : DVD Land
Язык : Russian
Default : Да
Forced : Нет
Аудио #2
Идентификатор : 3
Формат : AAC
Формат/Информация : Advanced Audio Codec
Профиль формата : LC
Идентификатор кодека : A_AAC-2
Продолжительность : 1 ч. 49 м.
Битрейт : 192 Кбит/сек
Каналы : 2 канала
Расположение каналов : Front: L R
Частота : 48,0 КГц
Частота кадров : 46,875 кадров/сек (1024 SPF)
Метод сжатия : С потерями
Задержка видео : 21 мс.
Размер потока : 151 Мбайт (5%)
Заголовок : Animebest
Язык : Russian
Default : Нет
Forced : Нет
Аудио #3
Идентификатор : 4
Формат : AAC
Формат/Информация : Advanced Audio Codec
Профиль формата : LC
Идентификатор кодека : A_AAC-2
Продолжительность : 1 ч. 49 м.
Битрейт : 192 Кбит/сек
Каналы : 2 канала
Расположение каналов : Front: L R
Частота : 48,0 КГц
Частота кадров : 46,875 кадров/сек (1024 SPF)
Метод сжатия : С потерями
Задержка видео : 21 мс.
Размер потока : 151 Мбайт (5%)
Язык : Japanese
Default : Нет
Forced : Нет
Текст
Идентификатор : 5
Формат : UTF-8
Идентификатор кодека : S_TEXT/UTF8
Идентификатор кодека/Информация : UTF-8 Plain Text
Продолжительность : 1 ч. 44 м.
Битрейт : 44 бит/сек
ElementCount : 646
Размер потока : 34,0 Кбайт (0%)
Язык : Russian
Default : Нет
Forced : Нет
Меню
00:00:00.000 : en:00:00:00.000
00:02:20.640 : en:00:02:20.640
00:14:05.845 : en:00:14:05.845
00:16:35.828 : en:00:16:35.828
00:24:36.475 : en:00:24:36.475
00:38:33.311 : en:00:38:33.311
00:51:17.908 : en:00:51:17.908
01:02:25.909 : en:01:02:25.909
01:11:38.127 : en:01:11:38.127
01:17:25.808 : en:01:17:25.808
01:26:23.845 : en:01:26:23.845
01:44:49.492 : en:01:44:49.492



Вы не можете начинать темы
Вы не можете отвечать на сообщения
Вы не можете редактировать свои сообщения
Вы не можете удалять свои сообщения
Вы не можете голосовать в опросах
Вы не можете прикреплять файлы к сообщениям
Вы можете скачивать файлы