Снежные гонки / Racetime (Бенуа Годбут / Benoît Godbout, Жан-Франсуа Пуле / Jean-François Pouliot) [2018, Канада, мультфильм, приключения, BDRip 720p] DUB (iTunes) + Original (Eng)


by Boris G ®
15-Apr-2019 12:44

[Quote]

Снежные гонки / Racetime (Бенуа Годбут / Benoît Godbout, Жан-Франсуа Пуле / Jean-François Pouliot) [2018, Канада, мультфильм, приключения, BDRip 720p] DUB (iTunes) + Original (Eng)

Снежные гонки | Racetime- Страна: Канада
Жанр: мультфильм, комедия, приключения
Продолжительность: 01:29:32
Год выпуска: 2018
Перевод: Профессиональный (дублированный) iTunes
Русские субтитры: нет
Режиссёр: Бенуа Годбут / Benoît Godbout, Жан-Франсуа Пуле / Jean-François Pouliot, Франсуа Бриссон /
Роли озвучивали: Соня Болл, Люсинда Дэвис, Тод Феннел, Ноэль Фишер, Доун Форд, Анджела Галуппо, Холли Дж. Франкель, Elizabeth Macrae, Сатине Скарлет Монтас, Дон Шеперд-Описание:
В маленькой живописной деревушке на заснеженных горных склонах Канады детвора устраивает настоящее спортивное состязание - гонки! Каждый участник подходит к делу со всей ответственностью и сам мастерит себе санки. Но, как и в любом другом виде спорта, в снежных гонках не обходится без обмана, ведь победить хочет каждый!-Sample

IMDb: 5.80 (133)
релиз: -Качество: BDRip 720p [BDRemux 1080p] -Azureus
Формат: MKV
Видео: AVC 2920 kb/s 1280 x 534 (2.397) 23.976 fps
Аудио: AC-3 384 kb/s 6 channels, 48.0 kHz iTunes
Аудио 2: AC-3 640 kb/s 6 channels, 48.0 kHz Eng
Субтитры: нет

MediaInfo | Log

Log

x264 [info]: profile Progressive High, level 4.1, 4:2:0, 8-bit
x264 [info]: frame I:1299 Avg QP:13.31 size:107999
x264 [info]: frame P:31659 Avg QP:15.35 size: 30135
x264 [info]: frame B:95861 Avg QP:18.64 size: 9042
x264 [info]: consecutive B-frames: 3.5% 4.0% 14.6% 28.0% 13.5% 27.1% 1.5% 1.6% 1.2% 4.6% 0.4%
x264 [info]: mb I I16..4: 5.7% 60.5% 33.8%
x264 [info]: mb P I16..4: 1.3% 13.0% 2.8% P16..4: 23.0% 24.8% 11.6% 3.1% 0.5% skip:19.8%
x264 [info]: mb B I16..4: 0.3% 1.7% 0.3% B16..8: 26.8% 17.1% 3.3% direct: 4.2% skip:46.3% L0:40.5% L1:43.4% BI:16.0%
x264 [info]: 8x8 transform intra:73.5% inter:48.7%
x264 [info]: direct mvs spatial:100.0% temporal:0.0%
x264 [info]: coded y,uvDC,uvAC intra: 81.1% 80.7% 63.9% inter: 15.7% 14.6% 5.8%
x264 [info]: i16 v,h,dc,p: 16% 27% 5% 52%
x264 [info]: i8 v,h,dc,ddl,ddr,vr,hd,vl,hu: 11% 14% 11% 8% 10% 9% 12% 10% 15%
x264 [info]: i4 v,h,dc,ddl,ddr,vr,hd,vl,hu: 15% 14% 8% 7% 12% 11% 12% 9% 12%
x264 [info]: i8c dc,h,v,p: 35% 35% 16% 14%
x264 [info]: Weighted P-Frames: Y:2.8% UV:2.2%
x264 [info]: ref P L0: 58.9% 10.1% 13.8% 5.6% 3.6% 2.9% 2.1% 1.4% 1.4% 0.1% 0.0%
x264 [info]: ref B L0: 79.7% 10.1% 4.6% 2.3% 1.5% 1.0% 0.6% 0.2%
x264 [info]: ref B L1: 94.7% 5.3%
x264 [info]: kb/s:2920.08
x264 [total]: encoded 128819 frames, 14.19 fps, 2920.08 kb/s
Format : Matroska
Format version : Version 4 / Version 2
File size : 2.47 GiB
Duration : 1 h 29 min
Overall bit rate : 3 946 kb/s
Encoded date : UTC 2019-04-15 05:59:14
Writing application : mkvmerge v8.2.0 ('World of Adventure') 64bit
Writing library : libebml v1.3.1 + libmatroska v1.4.2
Video
ID : 1
Format : AVC
Format/Info : Advanced Video Codec
Format profile : High@L4.1
Format settings : CABAC / 9 Ref Frames
Format settings, CABAC : Yes
Format settings, RefFrames : 9 frames
Codec ID : V_MPEG4/ISO/AVC
Duration : 1 h 29 min
Bit rate : 2 920 kb/s
Width : 1 280 pixels
Height : 534 pixels
Display aspect ratio : 2.40:1
Frame rate mode : Constant
Frame rate : 23.976 (24000/1001) FPS
Color space : YUV
Chroma subsampling : 4:2:0
Bit depth : 8 bits
Scan type : Progressive
Bits/(Pixel*Frame) : 0.178
Stream size : 1.83 GiB (74%)
Title : Racetime (2018) [rutracker.org]
Writing library : x264 core 157 r2969 d4099dd
Encoding settings : cabac=1 / ref=9 / deblock=1:-3:-2 / analyse=0x3:0x133 / me=umh / subme=11 / psy=1 / psy_rd=1.00:0.05 / mixed_ref=1 / me_range=48 / chroma_me=1 / trellis=2 / 8x8dct=1 / cqm=0 / deadzone=21,11 / fast_pskip=0 / chroma_qp_offset=-3 / threads=12 / lookahead_threads=3 / sliced_threads=0 / nr=0 / decimate=1 / interlaced=0 / bluray_compat=0 / constrained_intra=0 / bframes=10 / b_pyramid=2 / b_adapt=2 / b_bias=0 / direct=3 / weightb=1 / open_gop=0 / weightp=2 / keyint=250 / keyint_min=23 / scenecut=40 / intra_refresh=0 / rc_lookahead=60 / rc=crf / mbtree=0 / crf=17.1 / qcomp=0.60 / qpmin=0 / qpmax=69 / qpstep=4 / vbv_maxrate=50000 / vbv_bufsize=62500 / crf_max=0.0 / nal_hrd=none / filler=0 / ip_ratio=1.40 / pb_ratio=1.30 / aq=3:0.90
Language : English
Default : Yes
Forced : No
Audio #1
ID : 2
Format : AC-3
Format/Info : Audio Coding 3
Codec ID : A_AC3
Duration : 1 h 29 min
Bit rate mode : Constant
Bit rate : 384 kb/s
Channel(s) : 6 channels
Channel positions : Front: L C R, Side: L R, LFE
Sampling rate : 48.0 kHz
Frame rate : 31.250 FPS (1536 SPF)
Bit depth : 16 bits
Compression mode : Lossy
Stream size : 246 MiB (10%)
Title : iTunes
Language : Russian
Service kind : Complete Main
Default : Yes
Forced : No
Audio #2
ID : 3
Format : AC-3
Format/Info : Audio Coding 3
Codec ID : A_AC3
Duration : 1 h 29 min
Bit rate mode : Constant
Bit rate : 640 kb/s
Channel(s) : 6 channels
Channel positions : Front: L C R, Side: L R, LFE
Sampling rate : 48.0 kHz
Frame rate : 31.250 FPS (1536 SPF)
Bit depth : 16 bits
Compression mode : Lossy
Stream size : 410 MiB (16%)
Title : Original
Language : English
Service kind : Complete Main
Default : No
Forced : No
Menu
00:00:00.000 : :Chapter 01
00:06:33.101 : :Chapter 02
00:12:33.711 : :Chapter 03
00:18:53.132 : :Chapter 04
00:22:58.460 : :Chapter 05
00:27:34.403 : :Chapter 06
00:31:56.832 : :Chapter 07
00:38:13.041 : :Chapter 08
00:44:17.655 : :Chapter 09
00:48:09.970 : :Chapter 10
00:53:56.817 : :Chapter 11
00:59:58.345 : :Chapter 12
01:06:00.331 : :Chapter 13
01:11:40.880 : :Chapter 14
01:17:42.908 : :Chapter 15
01:22:32.156 : :Chapter 16[/pre]

Скриншоты


Download

Download free and at maximum speed!

How to Download? · What is a torrent? · Ratings and Limitations




You cannot post new topics in this forum
You cannot reply to topics in this forum
You cannot edit your posts in this forum
You cannot delete your posts in this forum
You cannot vote in polls in this forum
You cannot attach files in this forum
You cannot download files in this forum