Восхождение (Лариса Шепитько) [1976, СССР, драма, WEB-DL 1080p] + Sub Eng + Original Rus


by Boris G ®
15-Apr-2019 12:45

[Quote]

Восхождение (Лариса Шепитько) [1976, СССР, драма, WEB-DL 1080p] + Sub Eng + Original Rus

Восхождение- Страна: СССР
Студия: "Мосфильм"
Жанр: драма
Год выпуска: 1976
Продолжительность: 01:44:40
Перевод: Не требуется
Субтитры: английские
Оригинальная аудиодорожка: русский-Режиссер: Лариса Шепитько-В ролях: Борис Плотников, Владимир Гостюхин, Анатолий Солоницын, Сергей Яковлев, Людмила Полякова, Виктория Гольдентул, Мария Виноградова, Николай Сектименко, Сергей Канищев, Владимир Лаптев, Владимир Рудый, Вадим Гусев, Александра Харитонова, Александр Пятков, Галина Булкина, Александр Демьяненко (дубляж)
Описание: Оккупированная Белоруссия, зима 1942 года. Солдат Рыбак и офицер Сотников отправляются на поиски продовольствия для партизанского отряда. После стычки с полицаями они скрываются в деревне, но спустя некоторое время их настигают каратели. Допросы, пытки, страх… Поиски выхода, сделки с совестью приводят одного из героев фильма к предательству.-Сэмпл | Кинопоиск-Тип релиза: WEB-DL 1080p
Контейнер: MKV
Видео: MPEG-4 AVC (High@L4.0); 1480x1080, Display aspect ratio 1.370:1, 25.000 fps, 4912 Kbps
Аудио: Русский: AC-3; 16 bits 48 Khz; 2.0ch 192 Kbps; CBR | DVD5 "КП"
Формат субтитров: softsub (SRT)

MediaInfo

General
Unique ID : 199240625785755563437185336390677162994 (0x95E45946A05DD90DA779F097F4D7EBF2)
Complete name : Восхождение.1976.mkv
Format : Matroska
Format version : Version 2
File size : 3.73 GiB
Duration : 1 h 44 min
Overall bit rate : 5 106 kb/s
Encoded date : UTC 2019-04-14 13:39:50
Writing application : mkvmerge v7.8.0 ('River Man') 32bit built on Mar 27 2015 16:18:02
Writing library : libebml v1.3.1 + libmatroska v1.4.2
Video
ID : 1
Format : AVC
Format/Info : Advanced Video Codec
Format profile : High@L4
Format settings : CABAC / 5 Ref Frames
Format settings, CABAC : Yes
Format settings, ReFrames : 5 frames
Codec ID : V_MPEG4/ISO/AVC
Duration : 1 h 44 min
Bit rate : 4 812 kb/s
Width : 1 480 pixels
Height : 1 080 pixels
Display aspect ratio : 1.370
Frame rate mode : Constant
Frame rate : 25.000 FPS
Color space : YUV
Chroma subsampling : 4:2:0
Bit depth : 8 bits
Scan type : Progressive
Bits/(Pixel*Frame) : 0.120
Stream size : 3.52 GiB (94%)
Title : Восхождение.1976
Language : Russian
Default : Yes
Forced : No
Color range : Limited
Color primaries : BT.709
Transfer characteristics : BT.709
Matrix coefficients : BT.709
Audio
ID : 2
Format : AC-3
Format/Info : Audio Coding 3
Codec ID : A_AC3
Duration : 1 h 44 min
Bit rate mode : Constant
Bit rate : 192 kb/s
Channel(s) : 2 channels
Channel positions : Front: L R
Sampling rate : 48.0 kHz
Frame rate : 31.250 FPS (1536 SPF)
Bit depth : 16 bits
Compression mode : Lossy
Stream size : 144 MiB (4%)
Title : AC-3; 16 bits 48 Khz; 2.0ch 192 Kbps; CBR | DVD5 КП
Language : Russian
Service kind : Complete Main
Default : Yes
Forced : No
Text
ID : 3
Format : UTF-8
Codec ID : S_TEXT/UTF8
Codec ID/Info : UTF-8 Plain Text
Language : English
Default : No
Forced : No

Скриншоты

Download

Download free and at maximum speed!

How to Download? · What is a torrent? · Ratings and Limitations




You cannot post new topics in this forum
You cannot reply to topics in this forum
You cannot edit your posts in this forum
You cannot delete your posts in this forum
You cannot vote in polls in this forum
You cannot attach files in this forum
You cannot download files in this forum