Эпоха Дракона: Рождение Искательницы / Dragon Age: Dawn of the Seeker / Dragon Age: Blood Mage no Seisen (Сори Фумихико) [Movie] [1 из 1] [Без хардсаба] [RUS(int), JAP+SUB] [2012, приключения, фэнтези, BDRip] [1080p]


Размер:  2.04 GB   |    Зарегистрирован:  5 месяцев 9 дней   |    Скачан:  0 раз

Полного источника не было: 8 часов

by lev99 ®
08-Мар-2018 11:03

[Цитировать]

Эпоха Дракона: Рождение Искательницы / Dragon Age: Dawn of the Seeker / Dragon Age: Blood Mage no Seisen (Сори Фумихико) [Movie] [1 из 1] [Без хардсаба] [RUS(int), JAP+SUB] [2012, приключения, фэнтези, BDRip] [1080p]

Эпоха Дракона: Рождение Искательницы / Dragon Age: Dawn of the Seeker / Dragon Age: Blood Mage no Seisen
Страна: Япония
Год выпуска: 2012 г.
Жанр: приключения, фэнтези
Тип: полнометражный фильм, 90 мин.
Режиссер: Сори Фумихико
Описание: Восходит солнце и приносит собой новую волнующую эпоху в Рождении Искательницы — первом полноформатном анимированном дополнении к миру Dragon Age. В землях Орлея юная и дерзкая Искательница Кассандра сражается в попытке остановить кровавый заговор.
Неизвестные стремятся разорвать на части самый могущественный религиозный орден, и по мере развития зловещего плана Кассандра подпадает под обвинение в измене и убийстве. Преследуемая друзьями и врагами, импульсивная красотка должна очистить свое имя, сталкиваясь с продажными храмовниками и мятежными магами крови. Неудача для нее означает одно — клинок палача. Но если ей удастся совладать со своим гневом и раскрыть тайные силы, угрожающие правлению Верховной жрицы (Divine), имя Кассандры займет место в легендах.
Возраст: 18+
Рейтинг MPAA: NC-17
- world-art - | - kinopoisk -
Доп. информация: Сохранены оригинальные главы. Видео взято [HD-China]
Агент Вексилл / Vexille: 2077 Nihon Sakoku [2007] [Movie]
ТО - Эллиптическая орбита & Планета симбионтов / TO - Elliptical Orbit & Symbiotic Planet [2009] [OVA]
Эпоха Дракона: Рождение Искательницы / Dragon Age: Dawn of the Seeker / Dragon Age: Blood Mage no Seisen [2012] [Movie]

Качество: BDRip
Тип релиза: Без хардсаба
Формат видео: MKV
Автор рипа: lev99
Видео: x264@L4.1, 1920x1080 (16:9), 23.976 fps, 2501 kbps, 0.050 bit/pixel, 8 bit
Аудио: AAC, 192 Kbps, 48.0Hz, 2 ch Язык: Русский (в составе контейнера);
Озвучка: многоголосая от студия Яскъер
Аудио 2: AAC, 192 Kbps, 48.0Hz, 2 ch Язык: Русский (в составе контейнера);
Озвучка 2: многоголосая от NIKITOS, Faraway, BalFor, Sonata, SakaE, FruKt, Viki, Lizaveta (SHIZA)
Аудио 3: AAC, 192 Kbps, 48.0Hz, 2 ch Язык: Русский (в составе контейнера);
Озвучка 3: многоголосая от Zohan, Vina, Molibden, Blank, Zlo (Renegade team)
Аудио 4: AAC, 192 Kbps, 48.0Hz, 2 ch Язык: Японский (в составе контейнера);
Озвучка 4: Оригинальная
Субтитры: ASS встроенные в составе контейнера (FULL);
Автор: AleX_MytH & BO3DYX

MediaInfo

Общее
Уникальный идентификатор : 252107770296530649280473378727232612219 (0xBDAA30BE3ADE37CD0ED0EC784BED277B)
Полное имя : \[lev99] Dragon Age Dawn of the Seeker [BDrip 1080p]\[lev99] Dragon Age Dawn of the Seeker [BDrip 1920x1080 x264 AAC].mkv
Формат : Matroska
Версия формата : Version 4 / Version 2
Размер файла : 2,04 Гбайт
Продолжительность : 1 ч. 29 м.
Общий поток : 3274 Кбит/сек
Название фильма : Dragon Age: Dawn of the Seeker 2012
Дата кодирования : UTC 2018-03-08 09:14:02
Программа кодирования : mkvmerge v21.0.0 ('Tardigrades Will Inherit The Earth') 64-bit
Библиотека кодирования : libebml v1.3.5 + libmatroska v1.4.8
Обложка : Yes
Attachments : cover.jpg
Видео
Идентификатор : 1
Формат : AVC
Формат/Информация : Advanced Video Codec
Профиль формата : High@L4.1
Настройки формата : CABAC / 4 Ref Frames
Параметр CABAC формата : Да
Параметр RefFrames формата : 4 кадра
Идентификатор кодека : V_MPEG4/ISO/AVC
Продолжительность : 1 ч. 29 м.
Битрейт : 2501 Кбит/сек
Ширина : 1920 пикселей
Высота : 1080 пикселей
Соотношение сторон : 16:9
Режим частоты кадров : Постоянный
Частота кадров : 23,976 (24000/1001) кадра/сек
Цветовое пространство : YUV
Субдискретизация насыщенности : 4:2:0
Битовая глубина : 8 бит
Тип развёртки : Прогрессивная
Бит/(Пиксели*Кадры) : 0.050
Размер потока : 1,56 Гбайт (76%)
Библиотека кодирования : x264 core 152 r2851 ba24899
Настройки программы : cabac=1 / ref=4 / deblock=1:1:1 / analyse=0x3:0x133 / me=umh / subme=10 / psy=1 / psy_rd=0.40:0.00 / mixed_ref=1 / me_range=24 / chroma_me=1 / trellis=2 / 8x8dct=1 / cqm=0 / deadzone=21,11 / fast_pskip=1 / chroma_qp_offset=-2 / threads=18 / lookahead_threads=4 / sliced_threads=0 / nr=0 / decimate=1 / interlaced=0 / bluray_compat=0 / constrained_intra=0 / bframes=10 / b_pyramid=2 / b_adapt=2 / b_bias=0 / direct=3 / weightb=1 / open_gop=0 / weightp=2 / keyint=240 / keyint_min=23 / scenecut=40 / intra_refresh=0 / rc_lookahead=60 / rc=crf / mbtree=1 / crf=18.0 / qcomp=0.60 / qpmin=0 / qpmax=69 / qpstep=4 / vbv_maxrate=50000 / vbv_bufsize=62500 / crf_max=0.0 / nal_hrd=none / filler=0 / ip_ratio=1.40 / aq=1:0.60
Язык : Japanese
Default : Да
Forced : Нет
Цветовой диапазон : Limited
Основные цвета : BT.709
Характеристики трансфера : BT.709
Коэффициенты матрицы : BT.709
Аудио #1
Идентификатор : 2
Формат : AAC
Формат/Информация : Advanced Audio Codec
Профиль формата : LC
Идентификатор кодека : A_AAC-2
Продолжительность : 1 ч. 29 м.
Битрейт : 192 Кбит/сек
Каналы : 2 канала
Расположение каналов : Front: L R
Частота : 48,0 КГц
Частота кадров : 46,875 кадров/сек (1024 SPF)
Метод сжатия : С потерями
Задержка видео : 21 мс.
Размер потока : 122 Мбайт (6%)
Заголовок : студия Яскъер
Язык : Russian
Default : Да
Forced : Нет
Аудио #2
Идентификатор : 3
Формат : AAC
Формат/Информация : Advanced Audio Codec
Профиль формата : LC
Идентификатор кодека : A_AAC-2
Продолжительность : 1 ч. 29 м.
Битрейт : 192 Кбит/сек
Каналы : 2 канала
Расположение каналов : Front: L R
Частота : 48,0 КГц
Частота кадров : 46,875 кадров/сек (1024 SPF)
Метод сжатия : С потерями
Задержка видео : 21 мс.
Размер потока : 122 Мбайт (6%)
Заголовок : SHIZA
Язык : Russian
Default : Нет
Forced : Нет
Аудио #3
Идентификатор : 4
Формат : AAC
Формат/Информация : Advanced Audio Codec
Профиль формата : LC
Идентификатор кодека : A_AAC-2
Продолжительность : 1 ч. 29 м.
Битрейт : 192 Кбит/сек
Каналы : 2 канала
Расположение каналов : Front: L R
Частота : 48,0 КГц
Частота кадров : 46,875 кадров/сек (1024 SPF)
Метод сжатия : С потерями
Задержка видео : 21 мс.
Размер потока : 122 Мбайт (6%)
Заголовок : Renegade team
Язык : Russian
Default : Нет
Forced : Нет
Аудио #4
Идентификатор : 5
Формат : AAC
Формат/Информация : Advanced Audio Codec
Профиль формата : LC
Идентификатор кодека : A_AAC-2
Продолжительность : 1 ч. 29 м.
Битрейт : 192 Кбит/сек
Каналы : 2 канала
Расположение каналов : Front: L R
Частота : 48,0 КГц
Частота кадров : 46,875 кадров/сек (1024 SPF)
Метод сжатия : С потерями
Задержка видео : 21 мс.
Размер потока : 122 Мбайт (6%)
Язык : Japanese
Default : Нет
Forced : Нет
Текст
Идентификатор : 6
Формат : ASS
Идентификатор кодека : S_TEXT/ASS
Идентификатор кодека/Информация : Advanced Sub Station Alpha
Продолжительность : 1 ч. 23 м.
Битрейт : 90 бит/сек
ElementCount : 612
Метод сжатия : Без потерь
Размер потока : 55,5 Кбайт (0%)
Язык : Russian
Default : Нет
Forced : Нет
Меню
00:00:00.000 : en:Chapter 1
00:00:53.053 : en:Chapter 2
00:02:42.162 : en:Chapter 3
00:08:33.513 : en:Chapter 4
00:11:32.692 : en:Chapter 5
00:15:01.067 : en:Chapter 6
00:17:48.776 : en:Chapter 7
00:22:11.539 : en:Chapter 8
00:27:27.396 : en:Chapter 9
00:32:07.634 : en:Chapter 10
00:33:26.379 : en:Chapter 11
00:36:37.195 : en:Chapter 12
00:40:57.455 : en:Chapter 13
00:43:47.625 : en:Chapter 14
00:48:29.281 : en:Chapter 15
00:53:40.134 : en:Chapter 16
00:56:30.637 : en:Chapter 17
00:59:28.273 : en:Chapter 18
01:02:17.025 : en:Chapter 19
01:05:23.545 : en:Chapter 20
01:07:33.007 : en:Chapter 21
01:11:26.991 : en:Chapter 22
01:15:31.777 : en:Chapter 23
01:20:45.966 : en:Chapter 24
01:25:02.097 : en:Chapter 25



Вы не можете начинать темы
Вы не можете отвечать на сообщения
Вы не можете редактировать свои сообщения
Вы не можете удалять свои сообщения
Вы не можете голосовать в опросах
Вы не можете прикреплять файлы к сообщениям
Вы можете скачивать файлы