Гайвер - Фильм / The Guyver: Out of Control / Kyoushoku Soukou Guyver (Ватанабэ Хироси) [Movie] [1 из 1] [Без хардсаба] [RUS(int), JAP+SUB] [1986, приключения, фантастика, меха, ужасы, сёнэн, DVDRip] [540p]


by lev99 ®
05-Мар-2018 17:55

[Цитировать]

Гайвер - Фильм / The Guyver: Out of Control / Kyoushoku Soukou Guyver (Ватанабэ Хироси) [Movie] [1 из 1] [Без хардсаба] [RUS(int), JAP+SUB] [1986, приключения, фантастика, меха, ужасы, сёнэн, DVDRip] [540p]

Гайвер - Фильм / The Guyver: Out of Control / Kyoushoku Soukou Guyver
Страна: Япония
Год выпуска: 1986 г.
Жанр: приключения, фантастика, меха, ужасы, сёнэн
Тип: Movie
Эпизоды: 1 из 1
Продолжительность: 53 мин.
Режиссер: Ватанабэ Хироси
Студия: ANIMATE, Studio Live
Описание: Давным-давно инопланетяне из разных частей Вселенной прилетели на Землю. Их целью было создание мощнейшего биологического оружия для ведения инопланетных войн. С этой целью они создали на Земле жизнь и стали постепенно выводить всё новые виды живых организмов. Так появились все растения и животные, населяющие Землю, а также и человек. Но человек не был конечным продуктом эволюции: инопланетяне создали зоаноидов — генетически изменённых людей, которые могут трансформироваться в сильных и мощных монстров. Зоаноиды подчинялись телепатическим сигналам инопланетян, и они могли управлять Зоаноидами по своему усмотрению. Но однажды инопланетяне создали Гайвера — это был еще один вид биологического оружия, представляющий из себя биомеханическую броню. Однако в ходе экспериментов оказалось, что Гайвер не поддаётся контролю в отличие от зоаноидов. Гайвер отказался принять первоначальный облик носителя и убил тестового зоаноида, с помощью которого проводили испытания Гайвера. Инопланетянам с большим трудом удалось убить носителя, а затем они покинули Землю. Почему они это сделали неизвестно: возможно они испугались последствий своих изобретений, в частности Гайвера. Само название Гайвер означает «Неконтролируемый», «Не поддающийся контролю», «Вне контроля», так как инопланетяне не смогли контролировать его. С учетом того, что инопланетяне, создавшие Гайвера, были из различных частей Вселенной, то теоретически Гайвер должен чувствовать себя в полной безопасности и иметь силу в любой ее точке. © Wikipedia
Качество: DVDRip
Тип релиза: Без хардсаба
Формат видео: AVI
Автор рипа: Renmei Rei
Видео: XviD (Build 73), 720x540, 23,976 fps, ~1800 Kbps
Аудио: AC-3, 256 Kbps, 48.0Hz, 2 ch Язык: Русский (в составе контейнера); Озвучка: Одноголосная (жен.) Persona99 / GSGroup
Аудио 2: AC-3, 256 Kbps, 48.0Hz, 2 ch Язык Японский ; Озвучка 2: Оригинальная
Субтитры: srt внешние Язык субтитров русский;

MediaInfo

Общее
Полное имя : D:\downloads\Guyver (movie)[DVDRip][HWP]\Kyoshoku Soku Guyver Kikaku Gaihin [DVDRip][720x540 XviD AC3x2][GetSmart & AnimeReactor].avi
Формат : AVI
Формат/Информация : Audio Video Interleave
Размер файла : 938 Мбайт
Продолжительность : 56 м. 21 с.
Общий поток : 2326 Кбит/сек
Программа кодирования : VirtualDubModRus 1.5.10.2 (build 2542/release)
Библиотека кодирования : VirtualDubMod build 2542/release
Видео
Идентификатор : 0
Формат : MPEG-4 Visual
Профиль формата : Advanced Simple@L5
Настройки формата : BVOP2
Параметр BVOP формата : 2
Параметр QPel формата : Нет
Параметр GMC формата : Без точки перехода
Параметр матрицы формата : Default (H.263)
Идентификатор кодека : XVID
Идентификатор кодека/Подсказка : XviD
Продолжительность : 56 м. 21 с.
Битрейт : 1800 Кбит/сек
Ширина : 720 пикселей
Высота : 540 пикселей
Соотношение сторон : 4:3
Частота кадров : 23,976 (24000/1001) кадра/сек
Цветовое пространство : YUV
Субдискретизация насыщенности : 4:2:0
Битовая глубина : 8 бит
Тип развёртки : Прогрессивная
Метод сжатия : С потерями
Бит/(Пиксели*Кадры) : 0.193
Размер потока : 726 Мбайт (77%)
Библиотека кодирования : XviD 73
Аудио #1
Идентификатор : 1
Формат : AC-3
Формат/Информация : Audio Coding 3
Идентификатор кодека : 2000
Продолжительность : 56 м. 21 с.
Вид битрейта : Постоянный
Битрейт : 256 Кбит/сек
Каналы : 2 канала
Расположение каналов : Front: L R
Частота : 48,0 КГц
Частота кадров : 31,250 кадров/сек (1536 SPF)
Битовая глубина : 16 бит
Метод сжатия : С потерями
Размер потока : 103 Мбайт (11%)
Выравнивание : Разделение по промежуткам
Продолжительность промежутка : 42 мс. (1,00 видеокадр)
Время предзагрузки промежутка : 500 мс.
Заголовок : Russian [Persona99]
ServiceKind/String : Complete Main

Скриншоты

Скачать

Скачать бесплатно и на максимальной скорости!

Как скачивать? · Что такое торрент? · Рейтинг и ограничения




Вы не можете начинать темы
Вы не можете отвечать на сообщения
Вы не можете редактировать свои сообщения
Вы не можете удалять свои сообщения
Вы не можете голосовать в опросах
Вы не можете прикреплять файлы к сообщениям
Вы не можете скачивать файлы