Хронус / Chronus (Онда Наоюки) [Movie] [1 из 1] [Без хардсаба] [RUS(int),JAP+SUB] [2014, романтика, мистика, драма, BDRip] [1080p]


Размер:  1.49 GB   |    Зарегистрирован:  5 месяцев 13 дней   |    Скачан:  0 раз
Сидов:  1  [  0 KB/s  ]   Подробная статистика пиров
by lev99 ®
02-Мар-2018 10:39

[Цитировать]

Хронус / Chronus (Онда Наоюки) [Movie] [1 из 1] [Без хардсаба] [RUS(int),JAP+SUB] [2014, романтика, мистика, драма, BDRip] [1080p]

Хронус / Chronus / Чёрные сущности: Хронус / Kuro no Sumika: Chronus
Страна: Япония
Год выпуска: 2014 г.
Жанр: романтика, мистика, драма
Тип: короткометражный фильм, 25 мин.
Режиссер: Онда Наоюки
Студия: Studio 4°C
Описание: Макото Накадзоно является учащимся средней школы с небольшой тайной. Когда он был маленьким, у него была таинственная сила: видеть "черных лиц", которые крадут души. Однажды один из "черных лиц", Акира Сено, спросил Макото: "Будеш ли ты стоять на нашем пути?" Но Макото ответил: "В любом случае, нет ничего что я могу сделать , поэтому я не буду." В тот момент, Макото не заметил угрожающие тени приближается к своему другу детства Хазуки ...
- world-art - | - kinopoisk -
Возраст: 14+
Рейтинг MPAA: PG-13
Доп. информация: Сохранены оригинальные главы. Видео взято [Saizen]
Качество: BDRip
Тип релиза: Без хардсаба
Формат видео: MKV
Автор рипа: lev99
Видео: x264@L5.1, 1920x1080 (16:9), 23.976 fps, 8102 kbps, 0.163 bit/pixel, 10 bit
Аудио: AAC, 192 Kbps, 48.0Hz, 2 ch Язык: Русский (в составе контейнера);
Озвучка: двухголосная (женская & мужская) Persona99 & Molodoy
Аудио 2: AAC, 192 Kbps, 48.0Hz, 2 ch Язык: Японский (в составе контейнера);
Озвучка 2: Оригинальная
Субтитры: ASS встроенные в составе контейнера (надписи/Full); [Loony]

MediaInfo

Общее
Уникальный идентификатор : 230013609208192003355324299806643203769 (0xAD0B027F91ECFCFD2CE8EF40F33E2EB9)
Полное имя : \[lev99] Kuro no Sumika Chronus [BDrip 1080p]\[lev99] Kuro no Sumika Chronus [BDrip 1920x1080 x264 AAC].mkv
Формат : Matroska
Версия формата : Version 4 / Version 2
Размер файла : 1,49 Гбайт
Продолжительность : 25 м. 3 с.
Общий поток : 8490 Кбит/сек
Название фильма : Kuro no Sumika: Chronus
Дата кодирования : UTC 2018-03-02 10:08:58
Программа кодирования : mkvmerge v21.0.0 ('Tardigrades Will Inherit The Earth') 64-bit
Библиотека кодирования : libebml v1.3.5 + libmatroska v1.4.8
Обложка : Yes
Attachments : cover.jpg
Видео
Идентификатор : 1
Формат : AVC
Формат/Информация : Advanced Video Codec
Профиль формата : High 10@L5.1
Настройки формата : CABAC / 16 Ref Frames
Параметр CABAC формата : Да
Параметр RefFrames формата : 16 кадров
Идентификатор кодека : V_MPEG4/ISO/AVC
Продолжительность : 25 м. 3 с.
Битрейт : 8102 Кбит/сек
Ширина : 1920 пикселей
Высота : 1080 пикселей
Соотношение сторон : 16:9
Режим частоты кадров : Постоянный
Частота кадров : 23,976 (24000/1001) кадра/сек
Цветовое пространство : YUV
Субдискретизация насыщенности : 4:2:0
Битовая глубина : 10 бит
Тип развёртки : Прогрессивная
Бит/(Пиксели*Кадры) : 0.163
Размер потока : 1,42 Гбайт (95%)
Библиотека кодирования : x264 core 142 r2409 d6b4e63
Настройки программы : cabac=1 / ref=16 / deblock=1:0:0 / analyse=0x3:0x133 / me=umh / subme=10 / psy=1 / psy_rd=1.00:0.00 / mixed_ref=1 / me_range=24 / chroma_me=1 / trellis=2 / 8x8dct=1 / cqm=0 / deadzone=21,11 / fast_pskip=0 / chroma_qp_offset=-2 / threads=6 / lookahead_threads=1 / sliced_threads=0 / nr=0 / decimate=1 / interlaced=0 / bluray_compat=0 / constrained_intra=0 / bframes=16 / b_pyramid=2 / b_adapt=2 / b_bias=0 / direct=1 / weightb=1 / open_gop=0 / weightp=2 / keyint=250 / keyint_min=23 / scenecut=40 / intra_refresh=0 / rc=crf / mbtree=0 / crf=17.5 / qcomp=0.60 / qpmin=0 / qpmax=81 / qpstep=4 / ip_ratio=1.40 / pb_ratio=1.30 / aq=2:1.00 / zones=1647,3198,crf=18.5/8301,8643,crf=18.5/19634,19702,crf=18.5/27008,27213,crf=18.5/27532,27602,crf=18.5/34371,36047,crf=22
Язык : Japanese
Default : Да
Forced : Нет
Цветовой диапазон : Limited
Коэффициенты матрицы : BT.709
Аудио #1
Идентификатор : 2
Формат : AAC
Формат/Информация : Advanced Audio Codec
Профиль формата : LC
Идентификатор кодека : A_AAC-2
Продолжительность : 25 м. 3 с.
Битрейт : 192 Кбит/сек
Каналы : 2 канала
Расположение каналов : Front: L R
Частота : 48,0 КГц
Частота кадров : 46,875 кадров/сек (1024 SPF)
Метод сжатия : С потерями
Задержка видео : 21 мс.
Размер потока : 34,4 Мбайт (2%)
Заголовок : Persona99 & Molodoy
Язык : Russian
Default : Да
Forced : Нет
Аудио #2
Идентификатор : 3
Формат : AAC
Формат/Информация : Advanced Audio Codec
Профиль формата : LC
Идентификатор кодека : A_AAC-2
Продолжительность : 25 м. 3 с.
Битрейт : 192 Кбит/сек
Каналы : 2 канала
Расположение каналов : Front: L R
Частота : 48,0 КГц
Частота кадров : 46,875 кадров/сек (1024 SPF)
Метод сжатия : С потерями
Задержка видео : 21 мс.
Размер потока : 34,4 Мбайт (2%)
Язык : Japanese
Default : Нет
Forced : Нет
Текст #1
Идентификатор : 4
Формат : ASS
Идентификатор кодека : S_TEXT/ASS
Идентификатор кодека/Информация : Advanced Sub Station Alpha
Продолжительность : 15 м. 7 с.
Битрейт : 983 бит/сек
ElementCount : 296
Метод сжатия : Без потерь
Размер потока : 109 Кбайт (0%)
Заголовок : надписи
Язык : Russian
Default : Да
Forced : Нет
Текст #2
Идентификатор : 5
Формат : ASS
Идентификатор кодека : S_TEXT/ASS
Идентификатор кодека/Информация : Advanced Sub Station Alpha
Продолжительность : 23 м. 57 с.
Битрейт : 779 бит/сек
ElementCount : 608
Метод сжатия : Без потерь
Размер потока : 137 Кбайт (0%)
Заголовок : [Loony]
Язык : Russian
Default : Нет
Forced : Нет
Меню
00:00:00.000 : en:Chronus
00:23:47.009 : en:Ending



Вы не можете начинать темы
Вы не можете отвечать на сообщения
Вы не можете редактировать свои сообщения
Вы не можете удалять свои сообщения
Вы не можете голосовать в опросах
Вы не можете прикреплять файлы к сообщениям
Вы можете скачивать файлы