Воспоминания одного пилота / Toaru Hikuushi e no Tsuioku / The Princess and the Pilot (Сисидо Дзюн) [Movie] [1 из 1] [Без хардсаба] [RUS(int), JAP+SUB] [2011, приключения, война, романтика, драма, BDRip] [1080p]


by lev99 ®
02-Мар-2018 11:59

[Цитировать]

Воспоминания одного пилота / Toaru Hikuushi e no Tsuioku / The Princess and the Pilot (Сисидо Дзюн) [Movie] [1 из 1] [Без хардсаба] [RUS(int), JAP+SUB] [2011, приключения, война, романтика, драма, BDRip] [1080p]

Воспоминания одного пилота / Flashbacks to a Certain Aerial Pilot
/ Toaru Hikuushi e no Tsuioku / Принцесса и пилот / The Princess and the Pilot

Страна: Япония
Год выпуска: 2011 г.
Жанр: приключения, война, романтика, драма
Тип: полнометражный фильм, 99 мин.
Режиссер: Сисидо Дзюн
Студия: Madhouse Studio, TMS
Описание: История о молодом пилоте Чарльзе Карино, служащем наёмником в имперских войсках Левамм. Казалось бы, живущему спокойной жизнью парне, судьба поворачивается таким образом, что ему приходится рисковать своей жизнью на особо-секретном задании. Цель его миссии заключается в сопровождении княжеской невесты, Леди Фаны де Морал в столицу, на пути к которой во всю идет война за земли. Воюющим войскам ополчения "Аматсавиан" удалось перехватить детали задания. Следовательно из-за большой опасности план придется сменить...
© World Art
- world-art -| - kinopoisk -
Возраст: 14+
Рейтинг MPAA: PG-13
Доп. информация: Сохранены оригинальные главы. Видео взято [Yousei-raws].
Качество: BDRip
Тип релиза: Без хардсаба
Формат видео: MKV
Автор рипа: lev99
Видео: x264@L4.1, 1920x1036 (1,85:1), 23.976 fps, 2987 kbps, 0.063 bit/pixel, 8 bit
Аудио: AAC, 192 Kbps, 48.0Hz, 2 ch Язык: Русский (в составе контейнера);
Озвучка: Многоголосая, закадровая - [Phobia, DAKJE, Monset, ZoIIaN, Mikaeru, Letty, Zlo, Molibden] [AnimeSpace Team]
Аудио 2: AAC, 192 Kbps, 48.0Hz, 2 ch Язык: Русский (в составе контейнера);
Озвучка 2: Двухголосная, закадровая - [Ancord & Nika Lenina] [AniDub]
Аудио 3: AAC, 192 Kbps, 48.0Hz, 2 ch Язык: Русский (в составе контейнера);
Озвучка 3: Двухголосная, закадровая - [loster01 & Emeri]
Аудио 4: AAC, 192 Kbps, 48.0Hz, 2 ch Язык: Русский (в составе контейнера);
Озвучка 4: Двухголосная, закадровая - [MifSnaiper & KroshkaRu] [SeMandKo and Animereactor]
Аудио 5: AAC, 192 Kbps, 48.0Hz, 2 ch Язык: Русский (в составе контейнера);
Озвучка 5: Одноголосная, закадровая - [Zic Asakuro]
Аудио 6: AAC, 192 Kbps, 48.0Hz, 2 ch Язык: Японский (в составе контейнера);
Озвучка 6: Оригинальная
Субтитры: ASS встроенные в составе контейнера; Semyon44 & Mirron
Субтитры 2: ASS встроенные в составе контейнера; Dreamers Team

MediaInfo

Общее
Уникальный идентификатор : 326831711082364252422152617423401464875 (0xF5E17F77599039D9CC9ABE7AFCB9342B)
Полное имя : \[lev99] The Princess and the Pilot 2011 [BDrip 1080p]\[lev99] The Princess and the Pilot 2011 [BDrip 1920x1036 x264 AAC].mkv
Формат : Matroska
Версия формата : Version 4 / Version 2
Размер файла : 2,88 Гбайт
Продолжительность : 1 ч. 39 м.
Общий поток : 4145 Кбит/сек
Название фильма : Toaru Hikuushi e no Tsuioku 2011
Дата кодирования : UTC 2018-03-16 17:52:34
Программа кодирования : mkvmerge v21.0.0 ('Tardigrades Will Inherit The Earth') 64-bit
Библиотека кодирования : libebml v1.3.5 + libmatroska v1.4.8
Обложка : Yes
Attachments : cover.jpg / hortensia.ttf
Видео
Идентификатор : 1
Формат : AVC
Формат/Информация : Advanced Video Codec
Профиль формата : High@L4.1
Настройки формата : CABAC / 4 Ref Frames
Параметр CABAC формата : Да
Параметр RefFrames формата : 4 кадра
Идентификатор кодека : V_MPEG4/ISO/AVC
Продолжительность : 1 ч. 39 м.
Битрейт : 2987 Кбит/сек
Ширина : 1920 пикселей
Высота : 1036 пикселей
Соотношение сторон : 1,85:1
Режим частоты кадров : Постоянный
Частота кадров : 23,976 (24000/1001) кадра/сек
Цветовое пространство : YUV
Субдискретизация насыщенности : 4:2:0
Битовая глубина : 8 бит
Тип развёртки : Прогрессивная
Бит/(Пиксели*Кадры) : 0.063
Размер потока : 2,08 Гбайт (72%)
Библиотека кодирования : x264 core 155 r2901 7d0ff22
Настройки программы : cabac=1 / ref=4 / deblock=1:1:1 / analyse=0x3:0x133 / me=umh / subme=10 / psy=1 / psy_rd=0.40:0.00 / mixed_ref=1 / me_range=24 / chroma_me=1 / trellis=2 / 8x8dct=1 / cqm=0 / deadzone=21,11 / fast_pskip=1 / chroma_qp_offset=-2 / threads=18 / lookahead_threads=4 / sliced_threads=0 / nr=0 / decimate=1 / interlaced=0 / bluray_compat=0 / constrained_intra=0 / bframes=10 / b_pyramid=2 / b_adapt=2 / b_bias=0 / direct=1 / weightb=1 / open_gop=0 / weightp=2 / keyint=240 / keyint_min=23 / scenecut=40 / intra_refresh=0 / rc_lookahead=60 / rc=crf / mbtree=1 / crf=18.0 / qcomp=0.80 / qpmin=0 / qpmax=69 / qpstep=4 / vbv_maxrate=50000 / vbv_bufsize=62500 / crf_max=0.0 / nal_hrd=none / filler=0 / ip_ratio=1.40 / aq=1:0.60
Язык : Japanese
Default : Да
Forced : Нет
Цветовой диапазон : Limited
Основные цвета : BT.709
Характеристики трансфера : BT.709
Коэффициенты матрицы : BT.709
Аудио #1
Идентификатор : 2
Формат : AAC
Формат/Информация : Advanced Audio Codec
Профиль формата : LC
Идентификатор кодека : A_AAC-2
Продолжительность : 1 ч. 39 м.
Битрейт : 192 Кбит/сек
Каналы : 2 канала
Расположение каналов : Front: L R
Частота : 48,0 КГц
Частота кадров : 46,875 кадров/сек (1024 SPF)
Метод сжатия : С потерями
Задержка видео : 21 мс.
Размер потока : 137 Мбайт (5%)
Заголовок : AnimeSpace Team
Язык : Russian
Default : Да
Forced : Нет
Аудио #2
Идентификатор : 3
Формат : AAC
Формат/Информация : Advanced Audio Codec
Профиль формата : LC
Идентификатор кодека : A_AAC-2
Продолжительность : 1 ч. 39 м.
Битрейт : 192 Кбит/сек
Каналы : 2 канала
Расположение каналов : Front: L R
Частота : 48,0 КГц
Частота кадров : 46,875 кадров/сек (1024 SPF)
Метод сжатия : С потерями
Задержка видео : 21 мс.
Размер потока : 137 Мбайт (5%)
Заголовок : Ancord & Nika Lenina
Язык : Russian
Default : Нет
Forced : Нет
Аудио #3
Идентификатор : 4
Формат : AAC
Формат/Информация : Advanced Audio Codec
Профиль формата : LC
Идентификатор кодека : A_AAC-2
Продолжительность : 1 ч. 39 м.
Битрейт : 192 Кбит/сек
Каналы : 2 канала
Расположение каналов : Front: L R
Частота : 48,0 КГц
Частота кадров : 46,875 кадров/сек (1024 SPF)
Метод сжатия : С потерями
Задержка видео : 21 мс.
Размер потока : 137 Мбайт (5%)
Заголовок : loster01 & Emeri
Язык : Russian
Default : Нет
Forced : Нет
Аудио #4
Идентификатор : 5
Формат : AAC
Формат/Информация : Advanced Audio Codec
Профиль формата : LC
Идентификатор кодека : A_AAC-2
Продолжительность : 1 ч. 39 м.
Битрейт : 192 Кбит/сек
Каналы : 2 канала
Расположение каналов : Front: L R
Частота : 48,0 КГц
Частота кадров : 46,875 кадров/сек (1024 SPF)
Метод сжатия : С потерями
Задержка видео : 21 мс.
Размер потока : 137 Мбайт (5%)
Заголовок : MifSnaiper & KroshkaRu
Язык : Russian
Default : Нет
Forced : Нет
Аудио #5
Идентификатор : 6
Формат : AAC
Формат/Информация : Advanced Audio Codec
Профиль формата : LC
Идентификатор кодека : A_AAC-2
Продолжительность : 1 ч. 39 м.
Битрейт : 192 Кбит/сек
Каналы : 2 канала
Расположение каналов : Front: L R
Частота : 48,0 КГц
Частота кадров : 46,875 кадров/сек (1024 SPF)
Метод сжатия : С потерями
Задержка видео : 21 мс.
Размер потока : 137 Мбайт (5%)
Заголовок : Zic Asakuro
Язык : Russian
Default : Нет
Forced : Нет
Аудио #6
Идентификатор : 7
Формат : AAC
Формат/Информация : Advanced Audio Codec
Профиль формата : LC
Идентификатор кодека : A_AAC-2
Продолжительность : 1 ч. 39 м.
Битрейт : 192 Кбит/сек
Каналы : 2 канала
Расположение каналов : Front: L R
Частота : 48,0 КГц
Частота кадров : 46,875 кадров/сек (1024 SPF)
Метод сжатия : С потерями
Задержка видео : 21 мс.
Размер потока : 137 Мбайт (5%)
Язык : Japanese
Default : Нет
Forced : Нет
Текст #1
Идентификатор : 8
Формат : ASS
Идентификатор кодека : S_TEXT/ASS
Идентификатор кодека/Информация : Advanced Sub Station Alpha
Продолжительность : 1 ч. 37 м.
Битрейт : 97 бит/сек
ElementCount : 850
Метод сжатия : Без потерь
Размер потока : 69,8 Кбайт (0%)
Заголовок : Semyon44 & Mirron
Язык : Russian
Default : Нет
Forced : Нет
Текст #2
Идентификатор : 9
Формат : ASS
Идентификатор кодека : S_TEXT/ASS
Идентификатор кодека/Информация : Advanced Sub Station Alpha
Продолжительность : 1 ч. 38 м.
Битрейт : 96 бит/сек
ElementCount : 812
Метод сжатия : Без потерь
Размер потока : 70,0 Кбайт (0%)
Заголовок : Dreamers team
Язык : Russian
Default : Нет
Forced : Нет
Меню
00:00:00.000 : en:Chapter 1
00:02:54.674 : en:Chapter 2
00:07:14.768 : en:Chapter 3
00:11:24.434 : en:Chapter 4
00:19:47.937 : en:Chapter 5
00:28:30.167 : en:Chapter 6
00:35:28.710 : en:Chapter 7
00:42:49.108 : en:Chapter 8
00:46:02.718 : en:Chapter 9
00:49:23.794 : en:Chapter 10
00:54:47.659 : en:Chapter 11
01:02:14.064 : en:Chapter 12
01:09:31.667 : en:Chapter 13
01:13:23.566 : en:Chapter 14
01:19:26.261 : en:Chapter 15
01:26:43.907 : en:Chapter 16
01:34:51.185 : en:Credits
Скачать

Скачать бесплатно и на максимальной скорости!

Как скачивать? · Что такое торрент? · Рейтинг и ограничения




Вы не можете начинать темы
Вы не можете отвечать на сообщения
Вы не можете редактировать свои сообщения
Вы не можете удалять свои сообщения
Вы не можете голосовать в опросах
Вы не можете прикреплять файлы к сообщениям
Вы не можете скачивать файлы