ТО - Эллиптическая орбита & Планета симбионтов / TO - Elliptical Orbit & Symbiotic Planet (Сори Фумихико) [OVA] [2 из 2] [Без хардсаба] [RUS(int), JAP+SUB] [2009, приключения, фантастика, драма, BDRip] [1080p]


Размер:  2.45 GB   |    Зарегистрирован:  5 месяцев 3 дня   |    Скачан:  0 раз

Полного источника не было: 9 дней

Личеров:  1  [  0 KB/s  ]   Подробная статистика пиров
by lev99 ®
28-Фев-2018 21:49

[Цитировать]

ТО - Эллиптическая орбита & Планета симбионтов / TO - Elliptical Orbit & Symbiotic Planet (Сори Фумихико) [OVA] [2 из 2] [Без хардсаба] [RUS(int), JAP+SUB] [2009, приключения, фантастика, драма, BDRip] [1080p]

ТО - Эллиптическая орбита & Планета симбионтов / TO - Elliptical Orbit & Symbiotic Planet
Страна: Япония
Год выпуска: 2009 г.
Жанр: приключения, фантастика, драма
Тип: OVA (2 эп.), 43 мин.
Режиссер: Сори Фумихико
Описание:
01 эп. - горькое (Эллиптическая орбита).
На перевалочную космическую орбитальную станцию "Полуночная базука" прилетает корабль с поэтичным названием "Летучий Голландец" для разгрузки и дозаправки. Член экипажа "Голландца" Мария - старая знакомая капитана станции Дана. Впрочем, долго предаваться воспоминаниям героям помешало вторжение на станцию террористов, которые собрались разрушить базу на Луне. Дану и Марии удалось избежать плена, и они решают любой ценой сорвать планы террористов...
02 эп. - грустное, но с надеждой (Планета симбионтов).
Действия разворачиваются в 22-м веке спустя n-ное количество лет после первой OAV. Человечество в поисках полезных ископаемых всё дальше и дальше забирается в космос. В OAV показаны события развернувшиеся на 5-й планете в системе Бета Гидры, созвездии Гидры. Нас ждут интриги, любовь и мудрый тихий старец, даже опасное биологическое оружие и ...
- world-art - | - kinopoisk -
Доп. информация: Видео взято [Workshop ARRU]
Возраст: 14+
Рейтинг MPAA: PG-13
Агент Вексилл / Vexille: 2077 Nihon Sakoku [2007] [Movie]
ТО - Эллиптическая орбита & Планета симбионтов / TO - Elliptical Orbit & Symbiotic Planet [2009] [OVA]
Эпоха Дракона: Рождение Искательницы / Dragon Age: Dawn of the Seeker / Dragon Age: Blood Mage no Seisen [2012] [Movie]

Качество: BDRip
Тип релиза: Без хардсаба
Формат видео: MKV
Автор рипа: lev99
Видео: x264@L4.1, 1920x1080 (16:9), 23.976 fps, ~3787 kbps, ~0.076 bit/pixel, 8 bit
Аудио: AAC, 192 Kbps, 48.0Hz, 2 ch Язык: Русский (в составе контейнера);
Озвучка: многоголосый (закадровый), ARiS / Henesy / Dajana / Kasumi / Mangaka / Zic / Yuuhi / Stef [Workshop ARRU]
Аудио 2: AAC, 192 kbps, 2 ch Язык Японский (в составе контейнера); Озвучка: Оригинал;
Субтитры: ASS встроенные в составе контейнера (надписи/Full);
Перевод: Daidzobu / der_Mond / fedor [Aragami Fansubs group]

MediaInfo

Общее
Уникальный идентификатор : 240059003307870037606619674788191985479 (0xB499AEAA7E913C0BCF5A3E77544ADF47)
Полное имя : \[lev99] TO - Elliptical Orbit & Symbiotic Planet [BDRip 1080p]\[lev99] TO - Elliptical Orbit - 01 [BDRip 1920x1080 x264 AAC].mkv
Формат : Matroska
Версия формата : Version 4 / Version 2
Размер файла : 1,22 Гбайт
Продолжительность : 41 м. 56 с.
Общий поток : 4174 Кбит/сек
Название фильма : TO - Elliptical Orbit - 01
Дата кодирования : UTC 2018-03-15 09:54:06
Программа кодирования : mkvmerge v21.0.0 ('Tardigrades Will Inherit The Earth') 64-bit
Библиотека кодирования : libebml v1.3.5 + libmatroska v1.4.8
Обложка : Yes
Attachments : cover.jpg
Видео
Идентификатор : 1
Формат : AVC
Формат/Информация : Advanced Video Codec
Профиль формата : High@L4.1
Настройки формата : CABAC / 4 Ref Frames
Параметр CABAC формата : Да
Параметр RefFrames формата : 4 кадра
Идентификатор кодека : V_MPEG4/ISO/AVC
Продолжительность : 41 м. 56 с.
Битрейт : 3787 Кбит/сек
Ширина : 1920 пикселей
Высота : 1080 пикселей
Соотношение сторон : 16:9
Режим частоты кадров : Постоянный
Частота кадров : 23,976 (24000/1001) кадра/сек
Цветовое пространство : YUV
Субдискретизация насыщенности : 4:2:0
Битовая глубина : 8 бит
Тип развёртки : Прогрессивная
Бит/(Пиксели*Кадры) : 0.076
Размер потока : 1,11 Гбайт (91%)
Библиотека кодирования : x264 core 155 r2901 7d0ff22
Настройки программы : cabac=1 / ref=4 / deblock=1:-3:-3 / analyse=0x3:0x133 / me=umh / subme=10 / psy=1 / psy_rd=0.40:0.00 / mixed_ref=1 / me_range=24 / chroma_me=1 / trellis=2 / 8x8dct=1 / cqm=0 / deadzone=21,11 / fast_pskip=1 / chroma_qp_offset=-2 / threads=2 / lookahead_threads=1 / sliced_threads=0 / nr=0 / decimate=1 / interlaced=0 / bluray_compat=0 / constrained_intra=0 / bframes=10 / b_pyramid=2 / b_adapt=2 / b_bias=0 / direct=1 / weightb=1 / open_gop=0 / weightp=2 / keyint=240 / keyint_min=23 / scenecut=40 / intra_refresh=0 / rc_lookahead=60 / rc=crf / mbtree=1 / crf=18.0 / qcomp=0.80 / qpmin=0 / qpmax=69 / qpstep=4 / vbv_maxrate=50000 / vbv_bufsize=62500 / crf_max=0.0 / nal_hrd=none / filler=0 / ip_ratio=1.40 / aq=1:0.60
Язык : Japanese
Default : Да
Forced : Нет
Цветовой диапазон : Limited
Основные цвета : BT.709
Характеристики трансфера : BT.709
Коэффициенты матрицы : BT.709
Аудио #1
Идентификатор : 2
Формат : AAC
Формат/Информация : Advanced Audio Codec
Профиль формата : LC
Идентификатор кодека : A_AAC-2
Продолжительность : 41 м. 56 с.
Битрейт : 192 Кбит/сек
Каналы : 2 канала
Расположение каналов : Front: L R
Частота : 48,0 КГц
Частота кадров : 46,875 кадров/сек (1024 SPF)
Метод сжатия : С потерями
Задержка видео : 21 мс.
Размер потока : 57,6 Мбайт (5%)
Заголовок : Workshop ARRU
Язык : Russian
Default : Да
Forced : Нет
Аудио #2
Идентификатор : 3
Формат : AAC
Формат/Информация : Advanced Audio Codec
Профиль формата : LC
Идентификатор кодека : A_AAC-2
Продолжительность : 41 м. 56 с.
Битрейт : 192 Кбит/сек
Каналы : 2 канала
Расположение каналов : Front: L R
Частота : 48,0 КГц
Частота кадров : 46,875 кадров/сек (1024 SPF)
Метод сжатия : С потерями
Задержка видео : 21 мс.
Размер потока : 57,6 Мбайт (5%)
Заголовок : Original
Язык : Japanese
Default : Нет
Forced : Нет
Текст #1
Идентификатор : 4
Формат : ASS
Идентификатор кодека : S_TEXT/ASS
Идентификатор кодека/Информация : Advanced Sub Station Alpha
Продолжительность : 41 м. 1 с.
Битрейт : 21 бит/сек
ElementCount : 36
Метод сжатия : Без потерь
Размер потока : 6,40 Кбайт (0%)
Заголовок : Comments
Язык : Russian
Default : Да
Forced : Нет
Текст #2
Идентификатор : 5
Формат : ASS
Идентификатор кодека : S_TEXT/ASS
Идентификатор кодека/Информация : Advanced Sub Station Alpha
Продолжительность : 41 м. 17 с.
Битрейт : 98 бит/сек
ElementCount : 316
Метод сжатия : Без потерь
Размер потока : 29,8 Кбайт (0%)
Заголовок : Subtitles [Aragami Fansub Group]
Язык : Russian
Default : Нет
Forced : Нет
Меню
00:01:39.099 : en:Elliptical Orbit
00:39:00.000 : en:END

Список эпизодов

01. Elliptical Orbit / Эллиптическая орбита
02. Symbiotic Planet / Планета симбионтов



Вы не можете начинать темы
Вы не можете отвечать на сообщения
Вы не можете редактировать свои сообщения
Вы не можете удалять свои сообщения
Вы не можете голосовать в опросах
Вы не можете прикреплять файлы к сообщениям
Вы можете скачивать файлы