Небесные скитальцы / The Sky Crawlers (Осии Мамору) [Movie] [1 из 1] [Без хардсаба] [RUS(int), JAP+SUB] [2008, драма, повседневность, авиация, боевик, сэйнэн, BDRip] [1080p]


by lev99 ®
28-Фев-2018 15:27

[Цитировать]

Небесные скитальцы / The Sky Crawlers (Осии Мамору) [Movie] [1 из 1] [Без хардсаба] [RUS(int), JAP+SUB] [2008, драма, повседневность, авиация, боевик, сэйнэн, BDRip] [1080p]

Небесные скитальцы / The Sky Crawlers
Страна: Япония
Год выпуска: 2008 г.
Жанр: драма, повседневность, авиация, боевик, сэйнэн
Тип: полнометражный фильм, 121 мин.
Режиссер: Осии Мамору
Автор оригинала: Мори Хироси
Студия: Production I.G
Описание: «Каждому поколению своя война», - говорил Мао Цзэдун, не зря изучавший в молодости древние китайские трактаты. Только страх заставляет людей ценить мирную жизнь, только сознание, что кто-то там постоянно сражается и умирает. Эту истину хорошо усвоили в альтернативном мире, развитие которого остановилось на уровне середины нашего XX века. Война из ужаса и проклятия превратилась в бизнес и ремесло, рычаги управления переместились к транснациональным корпорациям. Две из них - «Росток» и «Лаутерн» - специализируются на бесконечной военной игре, которую ведет самый передовой род войск – авиация. Поле битвы – весь мир, убивать можно только комбатантов, бомбить только военные объекты, а мирные жители смотрят на ТВ воздушные сражения в реальном времени и со вкусом обсуждают их, как спортивные матчи.
Молодой пилот Юйти Каннами, воюющий за «Росток», прибывает на небольшую базу Урису, которой командует молодая женщина Суйто Кусанаги. Впрочем, Юйти еще моложе – ведь он принадлежит к касте Килдрен – генетически модифицированным людям, которые, выйдя из подросткового возраста, больше не стареют, погибая только в битвах. Новичок быстро осваивается на базе, а летное мастерство помогает ему заслужить уважение боевых товарищей. Юйти втягивается в повседневную жизнь «небесных скитальцев», но вскоре в череде вылетов и нехитрых развлечений начинает замечать странные вещи. Постепенно он понимает, что развитие отношений с Кусанаги поможет найти ответы… вот только принесут ли они облегчение?
© Hollow, World Art
- world-art -| - kinopoisk -
Возраст: 14+
Рейтинг MPAA: PG-13
Доп. информация: Сохранены оригинальные главы; Bonus - jap, субтитров нет. Видео взято [Yousei-raws].
Качество: BDRip
Тип релиза: Без хардсаба
Формат видео: MKV
Автор рипа: lev99
Видео: x264@L4.1, 1920x1080 (16:9), 23.976 fps, 2946 kbps, 0.059 bit/pixel, 8 bit
Аудио: AAC, 192 Kbps, 48.0Hz, 2 ch Язык: Русский (в составе контейнера);
Озвучка: Двухголосый (муж.\жен.) от Valkrist & Keneretta (Moscow City Animegroup)
Аудио 2: AAC, 192 Kbps, 48.0Hz, 2 ch Язык: Русский (в составе контейнера);
Озвучка 2: Одноголосый (муж.) от Добрый сказочник (ARRu)
Аудио 3: AAC, 192 Kbps, 48.0Hz, 2 ch Язык: Русский (в составе контейнера);
Озвучка 3: Одноголосый (муж.) от 3df (NarutoFilm)
Аудио 4: AAC, 192 Kbps, 48.0Hz, 2 ch Язык: Русский (в составе контейнера);
Озвучка 4: Одноголосый (муж.) от А. Килька (Suzaku)
Аудио 2: AAC, 192 Kbps, 48.0Hz, 2 ch Язык: Японский (в составе контейнера);
Озвучка 4: Оригинальная
Субтитры: ASS встроенные в составе контейнера;
Перевод с японского: Kazuma-kun
Перевод с английского: Reaper
Перевод песни: Kazuma-kun
Редакторы: Reaper, Тимофей, pleratenpa, Kazuma-kun
Оформление и тайминг: pleratenpa
Благодарим за сотрудничество: ST & dweeb

MediaInfo

Общее
Уникальный идентификатор : 298440903433373366944021530918673299872 (0xE085A093CC80C305B00CF9F6EDB5B9A0)
Полное имя : \[lev99] The Sky Crawlers 2008 [BDrip 1080p]\[lev99] The Sky Crawlers 2008 [BDrip 1920x1080 x264 AAC].mkv
Формат : Matroska
Версия формата : Version 4 / Version 2
Размер файла : 3,35 Гбайт
Продолжительность : 2 ч. 2 м.
Общий поток : 3911 Кбит/сек
Название фильма : The Sky Crawlers 2008
Дата кодирования : UTC 2018-03-14 15:56:16
Программа кодирования : mkvmerge v21.0.0 ('Tardigrades Will Inherit The Earth') 64-bit
Библиотека кодирования : libebml v1.3.5 + libmatroska v1.4.8
Обложка : Yes
Attachments : cover.jpg / BenguiatGothicCTT.TTF / Brush_m.ttf / Candara.ttf / MyriadP0.otf / pala.ttf / palab.ttf / segoepr.ttf / stylo.ttf / ArnoPro-SmText.otf / B52.ttf
Видео
Идентификатор : 1
Формат : AVC
Формат/Информация : Advanced Video Codec
Профиль формата : High@L4.1
Настройки формата : CABAC / 4 Ref Frames
Параметр CABAC формата : Да
Параметр RefFrames формата : 4 кадра
Идентификатор кодека : V_MPEG4/ISO/AVC
Продолжительность : 2 ч. 2 м.
Битрейт : 2946 Кбит/сек
Ширина : 1920 пикселей
Высота : 1080 пикселей
Соотношение сторон : 16:9
Режим частоты кадров : Постоянный
Частота кадров : 23,976 (24000/1001) кадра/сек
Цветовое пространство : YUV
Субдискретизация насыщенности : 4:2:0
Битовая глубина : 8 бит
Тип развёртки : Прогрессивная
Бит/(Пиксели*Кадры) : 0.059
Размер потока : 2,52 Гбайт (75%)
Библиотека кодирования : x264 core 155 r2901 7d0ff22
Настройки программы : cabac=1 / ref=4 / deblock=1:1:1 / analyse=0x3:0x133 / me=umh / subme=10 / psy=1 / psy_rd=0.40:0.00 / mixed_ref=1 / me_range=24 / chroma_me=1 / trellis=2 / 8x8dct=1 / cqm=0 / deadzone=21,11 / fast_pskip=1 / chroma_qp_offset=-2 / threads=2 / lookahead_threads=1 / sliced_threads=0 / nr=0 / decimate=1 / interlaced=0 / bluray_compat=0 / constrained_intra=0 / bframes=10 / b_pyramid=2 / b_adapt=2 / b_bias=0 / direct=1 / weightb=1 / open_gop=0 / weightp=2 / keyint=240 / keyint_min=23 / scenecut=40 / intra_refresh=0 / rc_lookahead=60 / rc=crf / mbtree=1 / crf=18.0 / qcomp=0.80 / qpmin=0 / qpmax=69 / qpstep=4 / vbv_maxrate=50000 / vbv_bufsize=62500 / crf_max=0.0 / nal_hrd=none / filler=0 / ip_ratio=1.40 / aq=1:0.60
Язык : Japanese
Default : Да
Forced : Нет
Цветовой диапазон : Limited
Основные цвета : BT.709
Характеристики трансфера : BT.709
Коэффициенты матрицы : BT.709
Аудио #1
Идентификатор : 2
Формат : AAC
Формат/Информация : Advanced Audio Codec
Профиль формата : LC
Идентификатор кодека : A_AAC-2
Продолжительность : 2 ч. 2 м.
Битрейт : 192 Кбит/сек
Каналы : 2 канала
Расположение каналов : Front: L R
Частота : 48,0 КГц
Частота кадров : 46,875 кадров/сек (1024 SPF)
Метод сжатия : С потерями
Задержка видео : 21 мс.
Размер потока : 168 Мбайт (5%)
Заголовок : Valkrist & Keneretta
Язык : Russian
Default : Да
Forced : Нет
Аудио #2
Идентификатор : 3
Формат : AAC
Формат/Информация : Advanced Audio Codec
Профиль формата : LC
Идентификатор кодека : A_AAC-2
Продолжительность : 2 ч. 2 м.
Битрейт : 192 Кбит/сек
Каналы : 2 канала
Расположение каналов : Front: L R
Частота : 48,0 КГц
Частота кадров : 46,875 кадров/сек (1024 SPF)
Метод сжатия : С потерями
Задержка видео : 21 мс.
Размер потока : 168 Мбайт (5%)
Заголовок : А. Килька
Язык : Russian
Default : Нет
Forced : Нет
Аудио #3
Идентификатор : 4
Формат : AAC
Формат/Информация : Advanced Audio Codec
Профиль формата : LC
Идентификатор кодека : A_AAC-2
Продолжительность : 2 ч. 2 м.
Битрейт : 192 Кбит/сек
Каналы : 2 канала
Расположение каналов : Front: L R
Частота : 48,0 КГц
Частота кадров : 46,875 кадров/сек (1024 SPF)
Метод сжатия : С потерями
Задержка видео : 21 мс.
Размер потока : 168 Мбайт (5%)
Заголовок : 3df
Язык : Russian
Default : Нет
Forced : Нет
Аудио #4
Идентификатор : 5
Формат : AAC
Формат/Информация : Advanced Audio Codec
Профиль формата : LC
Идентификатор кодека : A_AAC-2
Продолжительность : 2 ч. 2 м.
Битрейт : 192 Кбит/сек
Каналы : 2 канала
Расположение каналов : Front: L R
Частота : 48,0 КГц
Частота кадров : 46,875 кадров/сек (1024 SPF)
Метод сжатия : С потерями
Задержка видео : 21 мс.
Размер потока : 168 Мбайт (5%)
Заголовок : Добрый сказочник
Язык : Russian
Default : Нет
Forced : Нет
Аудио #5
Идентификатор : 6
Формат : AAC
Формат/Информация : Advanced Audio Codec
Профиль формата : LC
Идентификатор кодека : A_AAC-2
Продолжительность : 2 ч. 2 м.
Битрейт : 192 Кбит/сек
Каналы : 2 канала
Расположение каналов : Front: L R
Частота : 48,0 КГц
Частота кадров : 46,875 кадров/сек (1024 SPF)
Метод сжатия : С потерями
Задержка видео : 21 мс.
Размер потока : 168 Мбайт (5%)
Язык : Japanese
Default : Нет
Forced : Нет
Текст
Идентификатор : 7
Формат : ASS
Идентификатор кодека : S_TEXT/ASS
Идентификатор кодека/Информация : Advanced Sub Station Alpha
Продолжительность : 2 ч. 0 м.
Битрейт : 99 бит/сек
ElementCount : 987
Метод сжатия : Без потерь
Размер потока : 88,0 Кбайт (0%)
Язык : Russian
Default : Нет
Forced : Нет
Меню
00:00:00.000 : en:Producers
00:01:03.147 : en:Sky Crawlers
01:56:09.671 : en:Ending Song
02:00:23.633 : en:Important scene after the credits

Скриншоты

Скачать

Скачать бесплатно и на максимальной скорости!

Как скачивать? · Что такое торрент? · Рейтинг и ограничения




Вы не можете начинать темы
Вы не можете отвечать на сообщения
Вы не можете редактировать свои сообщения
Вы не можете удалять свои сообщения
Вы не можете голосовать в опросах
Вы не можете прикреплять файлы к сообщениям
Вы не можете скачивать файлы