Пять сантиметров в секунду / Byousoku 5 Centimeter / 5 Centimeters per Second (Синкай Макото) [Movie] [1 из 1] [Без хардсаба] [RUS(int), JAP+SUB] [2007, романтика, драма, BDRip] [1080p]


by lev99 ®
27-Фев-2018 12:32

[Цитировать]

Пять сантиметров в секунду / Byousoku 5 Centimeter / 5 Centimeters per Second (Синкай Макото) [Movie] [1 из 1] [Без хардсаба] [RUS(int), JAP+SUB] [2007, романтика, драма, BDRip] [1080p]

Пять сантиметров в секунду / Byousoku 5 Centimeter / 5 Centimeters per Second
Страна: Япония
Год выпуска: 2007 г.
Жанр: романтика, драма
Тип: полнометражный фильм, 60 мин.
Режиссер: Синкай Макото
Студия: CoMix Wave Inc.
Описание: Такаки Тоно с детства был близок с Акари Синохарой, но в средней школе они вынуждены расстаться из-за переезда семьи Акари в другой город.
Несмотря на разлуку, дружба лишь крепнет, подростки живут не слишком далеко друг от друга и часто переписываются по почте. Однако наступает момент, когда уже семья Такаки должна переехать, и Акари с Такаки решают встретиться возможно в последний раз. Но зима Японии путает планы, из-за бурана рейсы поездов сильно задерживаются...
Проходят годы, с течением времени увядают и отношения, переписка становится все реже, и Такаки с Акари все сильнее отдаляются друг от друга. Остаются лишь тени воспоминаний о детстве, и слабая надежда когда-нибудь встретиться снова...
- world-art - | - kinopoisk -
Возраст: 14+
Рейтинг MPAA: PG-13
Доп. информация: Сохранены оригинальные главы; Bonus - субтитры русские / озвучки нет. Видео взято [Beatrice-Raws].
Качество: BDRip
Тип релиза: Без хардсаба
Формат видео: MKV
Автор рипа: lev99
Видео: x264@L4.1, 1920x1080 (16:9), 23.976 fps, 2728 kbps, 0.055 bit/pixel, 8 bit
Аудио: AAC, 192 Kbps, 48.0Hz, 2 ch Язык: Русский (в составе контейнера);
Озвучка: дубляж Reanimedia
Аудио 2: AAC, 192 Kbps, 48.0Hz, 2 ch Язык: Русский (в составе контейнера);
Озвучка 2: двухголосая муж/жен от Добрый Сказочник и Keneretta
Аудио 3: AAC, 192 Kbps, 48.0Hz, 2 ch Язык: Русский (в составе контейнера);
Озвучка 3: одноголосая муж от Cuba77
Аудио 4: AAC, 192 Kbps, 48.0Hz, 2 ch Язык: Японский (в составе контейнера);
Озвучка 4: Оригинальная
Субтитры: ASS встроенные в составе контейнера (надписи/Full); Автор: Reanimedia

MediaInfo

Общее
Уникальный идентификатор : 331977080648927070136974507160770092167 (0xF9C075C5A7495D31CCE6D75888A69C87)
Полное имя : \[lev99] Byousoku 5 Centimeter [BDRip 1080p]\[lev99] Byousoku 5 Centimeter 2007 [BDRip 1920x1080 x264 AAC].mkv
Формат : Matroska
Версия формата : Version 4 / Version 2
Размер файла : 1,54 Гбайт
Продолжительность : 1 ч. 2 м.
Общий поток : 3507 Кбит/сек
Название фильма : Byousoku 5 Centimeter 2007
Дата кодирования : UTC 2018-03-14 01:29:31
Программа кодирования : mkvmerge v21.0.0 ('Tardigrades Will Inherit The Earth') 64-bit
Библиотека кодирования : libebml v1.3.5 + libmatroska v1.4.8
Обложка : Yes
Attachments : cover.jpg / arial.ttf / ariali.ttf / BetinaScriptC.ttf / calibrib.ttf / comicbd.ttf / DPix_8pt (Regular).ttf / Lobster-Regular.ttf / Neo Sans Pro (Bold).ttf / Neo Sans Pro (Regular).ttf / segoepr.ttf / Stylo Bold.ttf / 1862.ttf
Видео
Идентификатор : 1
Формат : AVC
Формат/Информация : Advanced Video Codec
Профиль формата : High@L4.1
Настройки формата : CABAC / 4 Ref Frames
Параметр CABAC формата : Да
Параметр RefFrames формата : 4 кадра
Идентификатор кодека : V_MPEG4/ISO/AVC
Продолжительность : 1 ч. 2 м.
Битрейт : 2728 Кбит/сек
Ширина : 1920 пикселей
Высота : 1080 пикселей
Соотношение сторон : 16:9
Режим частоты кадров : Постоянный
Частота кадров : 23,976 (24000/1001) кадра/сек
Цветовое пространство : YUV
Субдискретизация насыщенности : 4:2:0
Битовая глубина : 8 бит
Тип развёртки : Прогрессивная
Бит/(Пиксели*Кадры) : 0.055
Размер потока : 1,19 Гбайт (78%)
Библиотека кодирования : x264 core 155 r2901 7d0ff22
Настройки программы : cabac=1 / ref=4 / deblock=1:1:1 / analyse=0x3:0x133 / me=umh / subme=10 / psy=1 / psy_rd=0.40:0.00 / mixed_ref=1 / me_range=24 / chroma_me=1 / trellis=2 / 8x8dct=1 / cqm=0 / deadzone=21,11 / fast_pskip=1 / chroma_qp_offset=-2 / threads=18 / lookahead_threads=4 / sliced_threads=0 / nr=0 / decimate=1 / interlaced=0 / bluray_compat=0 / constrained_intra=0 / bframes=10 / b_pyramid=2 / b_adapt=2 / b_bias=0 / direct=3 / weightb=1 / open_gop=0 / weightp=2 / keyint=240 / keyint_min=23 / scenecut=40 / intra_refresh=0 / rc_lookahead=60 / rc=crf / mbtree=1 / crf=18.0 / qcomp=0.80 / qpmin=0 / qpmax=69 / qpstep=4 / vbv_maxrate=50000 / vbv_bufsize=62500 / crf_max=0.0 / nal_hrd=none / filler=0 / ip_ratio=1.40 / aq=1:0.60
Язык : Japanese
Default : Да
Forced : Нет
Цветовой диапазон : Limited
Основные цвета : BT.709
Характеристики трансфера : BT.709
Коэффициенты матрицы : BT.709
Аудио #1
Идентификатор : 2
Формат : AAC
Формат/Информация : Advanced Audio Codec
Профиль формата : LC
Идентификатор кодека : A_AAC-2
Продолжительность : 1 ч. 2 м.
Битрейт : 192 Кбит/сек
Каналы : 2 канала
Расположение каналов : Front: L R
Частота : 48,0 КГц
Частота кадров : 46,875 кадров/сек (1024 SPF)
Метод сжатия : С потерями
Задержка видео : 21 мс.
Размер потока : 86,1 Мбайт (5%)
Заголовок : Reanimedia
Язык : Russian
Default : Да
Forced : Нет
Аудио #2
Идентификатор : 3
Формат : AAC
Формат/Информация : Advanced Audio Codec
Профиль формата : LC
Идентификатор кодека : A_AAC-2
Продолжительность : 1 ч. 2 м.
Битрейт : 192 Кбит/сек
Каналы : 2 канала
Расположение каналов : Front: L R
Частота : 48,0 КГц
Частота кадров : 46,875 кадров/сек (1024 SPF)
Метод сжатия : С потерями
Задержка видео : 21 мс.
Размер потока : 86,2 Мбайт (5%)
Заголовок : Добрый Сказочник и Keneretta
Язык : Russian
Default : Нет
Forced : Нет
Аудио #3
Идентификатор : 4
Формат : AAC
Формат/Информация : Advanced Audio Codec
Профиль формата : LC
Идентификатор кодека : A_AAC-2
Продолжительность : 1 ч. 2 м.
Битрейт : 192 Кбит/сек
Каналы : 2 канала
Расположение каналов : Front: L R
Частота : 48,0 КГц
Частота кадров : 46,875 кадров/сек (1024 SPF)
Метод сжатия : С потерями
Задержка видео : 21 мс.
Размер потока : 86,1 Мбайт (5%)
Заголовок : Cuba77
Язык : Russian
Default : Нет
Forced : Нет
Аудио #4
Идентификатор : 5
Формат : AAC
Формат/Информация : Advanced Audio Codec
Профиль формата : LC
Идентификатор кодека : A_AAC-2
Продолжительность : 1 ч. 2 м.
Битрейт : 192 Кбит/сек
Каналы : 2 канала
Расположение каналов : Front: L R
Частота : 48,0 КГц
Частота кадров : 46,875 кадров/сек (1024 SPF)
Метод сжатия : С потерями
Задержка видео : 21 мс.
Размер потока : 86,2 Мбайт (5%)
Язык : Japanese
Default : Нет
Forced : Нет
Текст #1
Идентификатор : 6
Формат : ASS
Идентификатор кодека : S_TEXT/ASS
Идентификатор кодека/Информация : Advanced Sub Station Alpha
Продолжительность : 59 м. 16 с.
Битрейт : 53 бит/сек
ElementCount : 163
Метод сжатия : Без потерь
Размер потока : 23,1 Кбайт (0%)
Заголовок : надписи
Язык : Russian
Default : Да
Forced : Нет
Текст #2
Идентификатор : 7
Формат : ASS
Идентификатор кодека : S_TEXT/ASS
Идентификатор кодека/Информация : Advanced Sub Station Alpha
Продолжительность : 59 м. 16 с.
Битрейт : 183 бит/сек
ElementCount : 733
Метод сжатия : Без потерь
Размер потока : 79,5 Кбайт (0%)
Язык : Russian
Default : Нет
Forced : Нет
Меню
00:00:00.000 : en:Chapter 01
00:00:59.058 : en:Chapter 02
00:05:41.174 : en:Chapter 03
00:12:56.609 : en:Chapter 04
00:19:08.147 : en:Chapter 05
00:25:55.554 : en:Chapter 06
00:39:17.355 : en:Chapter 07
00:43:47.291 : en:Chapter 08
00:48:30.699 : en:Chapter 09
00:54:46.741 : en:Chapter 10
00:59:55.675 : en:Chapter 11
Скачать

Скачать бесплатно и на максимальной скорости!

Как скачивать? · Что такое торрент? · Рейтинг и ограничения




Вы не можете начинать темы
Вы не можете отвечать на сообщения
Вы не можете редактировать свои сообщения
Вы не можете удалять свои сообщения
Вы не можете голосовать в опросах
Вы не можете прикреплять файлы к сообщениям
Вы не можете скачивать файлы