Твоё имя / Kimi no Na wa. / Your Name. (Синкай Макото) [Movie] [1 из 1] [Без хардсаба] [RUS(int), JAP+SUB] [2016, романтика, драма, школа, сверхъестественное, BDRip] [1080p]


Размер:  3.38 GB   |    Зарегистрирован:  5 месяцев 5 дней   |    Скачан:  0 раз
Сидов:  1  [  0 KB/s  ]   Подробная статистика пиров
by lev99 ®
27-Фев-2018 08:55

[Цитировать]

Твоё имя / Kimi no Na wa. / Your Name. (Синкай Макото) [Movie] [1 из 1] [Без хардсаба] [RUS(int), JAP+SUB] [2016, романтика, драма, школа, сверхъестественное, BDRip] [1080p]

Твоё имя / Kimi no Na wa. / Your Name.
Страна: Япония
Год выпуска: 2016 г.
Жанр: романтика, драма, школа, сверхъестественное
Тип: полнометражный фильм, 106 мин.
Режиссер: Синкай Макото
Студия: CoMix Wave Inc. / The Answer Studio
Описание: В размеренном спокойствии проходит её жизнь в провинциальной глубинке. Она - примерная дочь, заботливая сестра, усердная служительница в местном храме. В суматошной круговерти проходит один за другим его дни в многомиллионной столице. Он - талантливый художник, трудолюбивый работник и надёжный друг.
Их разделяют тысячи причин и сотни километров. Но судьба по своему разумению связала жизни Мицухи Миямидзу и Таки Татибаны друг с другом. Иногда во сне они непонятным для них образом меняются телами. Так странно для них переживать эти метаморфозы. Почему это происходит, а главное, как это всё прекратить - школьникам было неизвестно. Но с каждым днём сны становились всё чаще и реалистичнее. А значит, им всё чаще приходилось просыпаться в другой жизни и с чужим именем… Именем, которого раньше даже никогда не знал. © Dreamfighter, World Art
- world-art - | - kinopoisk -
Возраст: 14+
Рейтинг MPAA: PG-13
Доп. информация: Сохранены оригинальные главы. Видео взято [Beatrice-Raws].
Качество: BDRip
Тип релиза: Без хардсаба
Формат видео: MKV
Автор рипа: lev99
Видео: x264@L4.1, 1920x1080 (16:9), 23.976 fps, 3764 kbps, 0.076 bit/pixel, 8 bit
Аудио: AAC, 192 Kbps, 48.0Hz, 2 ch Язык: Русский (в составе контейнера);
Озвучка: двухголосая муж/жен от Тимиркан Сиюхов и Маргарита Щелкунова (LE-Production)
Аудио 2: AAC, 192 Kbps, 48.0Hz, 2 ch Язык: Русский (в составе контейнера);
Озвучка 2: двухголосая муж/жен от Юрий Романов и Ульяна Романова (Timecraft)
Аудио 3: AAC, 192 Kbps, 48.0Hz, 2 ch Язык: Русский (в составе контейнера);
Озвучка 3: двухголосая муж/жен от Soer & MezIdA (DeadLine)
Аудио 4: AAC, 192 Kbps, 48.0Hz, 2 ch Язык: Японский (в составе контейнера);
Озвучка 4: Оригинальная
Субтитры: ASS встроенные в составе контейнера (надписи/Full); Автор: 2nd Division
переводчики: DanielB, Atakaze, Q-Beast, редакторы: Imi, Tanegashi, оформление: DanielB

MediaInfo

Общее
Уникальный идентификатор : 135311745719955675056489576281894640870 (0x65CC1823736C74BE03D5F9E0E5895CE6)
Полное имя : \[lev99] Kimi no Na wa [BDRip 1080p]\[lev99] Kimi no Na wa [BDRip 1920x1080 x264 AAC].mkv
Формат : Matroska
Версия формата : Version 4 / Version 2
Размер файла : 3,38 Гбайт
Продолжительность : 1 ч. 46 м.
Общий поток : 4544 Кбит/сек
Название фильма : Kimi no Na wa
Дата кодирования : UTC 2018-03-12 18:13:37
Программа кодирования : mkvmerge v21.0.0 ('Tardigrades Will Inherit The Earth') 64-bit
Библиотека кодирования : libebml v1.3.5 + libmatroska v1.4.8
Обложка : Yes
Attachments : cover.jpg / BOOKOSI.TTF / Eskal.ttf / Georgia.ttf / Gothic.TTF / LEngineer-Regular.otf / Myriad Pro Cond.ttf / pt-sans.ttf / pt-sansb.ttf / segoepr.ttf / segoeprb.ttf / segoeuisl.ttf / tahoma.ttf / tahomabd.ttf / BOOKOS.TTF
Видео
Идентификатор : 1
Формат : AVC
Формат/Информация : Advanced Video Codec
Профиль формата : High@L4.1
Настройки формата : CABAC / 4 Ref Frames
Параметр CABAC формата : Да
Параметр RefFrames формата : 4 кадра
Идентификатор кодека : V_MPEG4/ISO/AVC
Продолжительность : 1 ч. 46 м.
Битрейт : 3764 Кбит/сек
Ширина : 1920 пикселей
Высота : 1080 пикселей
Соотношение сторон : 16:9
Режим частоты кадров : Постоянный
Частота кадров : 23,976 (24000/1001) кадра/сек
Цветовое пространство : YUV
Субдискретизация насыщенности : 4:2:0
Битовая глубина : 8 бит
Тип развёртки : Прогрессивная
Бит/(Пиксели*Кадры) : 0.076
Размер потока : 2,80 Гбайт (83%)
Библиотека кодирования : x264 core 155 r2901 7d0ff22
Настройки программы : cabac=1 / ref=4 / deblock=1:1:1 / analyse=0x3:0x133 / me=umh / subme=10 / psy=1 / psy_rd=0.40:0.00 / mixed_ref=1 / me_range=24 / chroma_me=1 / trellis=2 / 8x8dct=1 / cqm=0 / deadzone=21,11 / fast_pskip=1 / chroma_qp_offset=-2 / threads=2 / lookahead_threads=1 / sliced_threads=0 / nr=0 / decimate=1 / interlaced=0 / bluray_compat=0 / constrained_intra=0 / bframes=3 / b_pyramid=2 / b_adapt=2 / b_bias=0 / direct=1 / weightb=1 / open_gop=0 / weightp=2 / keyint=240 / keyint_min=23 / scenecut=40 / intra_refresh=0 / rc_lookahead=60 / rc=crf / mbtree=1 / crf=18.0 / qcomp=0.80 / qpmin=0 / qpmax=69 / qpstep=4 / vbv_maxrate=50000 / vbv_bufsize=62500 / crf_max=0.0 / nal_hrd=none / filler=0 / ip_ratio=1.40 / aq=1:0.60
Язык : Japanese
Default : Да
Forced : Нет
Цветовой диапазон : Limited
Основные цвета : BT.709
Характеристики трансфера : BT.709
Коэффициенты матрицы : BT.709
Аудио #1
Идентификатор : 2
Формат : AAC
Формат/Информация : Advanced Audio Codec
Профиль формата : LC
Идентификатор кодека : A_AAC-2
Продолжительность : 1 ч. 46 м.
Битрейт : 192 Кбит/сек
Каналы : 2 канала
Расположение каналов : Front: L R
Частота : 48,0 КГц
Частота кадров : 46,875 кадров/сек (1024 SPF)
Метод сжатия : С потерями
Задержка видео : 21 мс.
Размер потока : 146 Мбайт (4%)
Заголовок : [LE-Production]
Язык : Russian
Default : Да
Forced : Нет
Аудио #2
Идентификатор : 3
Формат : AAC
Формат/Информация : Advanced Audio Codec
Профиль формата : LC
Идентификатор кодека : A_AAC-2
Продолжительность : 1 ч. 46 м.
Битрейт : 192 Кбит/сек
Каналы : 2 канала
Расположение каналов : Front: L R
Частота : 48,0 КГц
Частота кадров : 46,875 кадров/сек (1024 SPF)
Метод сжатия : С потерями
Задержка видео : 21 мс.
Размер потока : 146 Мбайт (4%)
Заголовок : [Timecraft]
Язык : Russian
Default : Нет
Forced : Нет
Аудио #3
Идентификатор : 4
Формат : AAC
Формат/Информация : Advanced Audio Codec
Профиль формата : LC
Идентификатор кодека : A_AAC-2
Продолжительность : 1 ч. 46 м.
Битрейт : 192 Кбит/сек
Каналы : 2 канала
Расположение каналов : Front: L R
Частота : 48,0 КГц
Частота кадров : 46,875 кадров/сек (1024 SPF)
Метод сжатия : С потерями
Задержка видео : 21 мс.
Размер потока : 146 Мбайт (4%)
Заголовок : [DeadLine]
Язык : Russian
Default : Нет
Forced : Нет
Аудио #4
Идентификатор : 5
Формат : AAC
Формат/Информация : Advanced Audio Codec
Профиль формата : LC
Идентификатор кодека : A_AAC-2
Продолжительность : 1 ч. 46 м.
Битрейт : 192 Кбит/сек
Каналы : 2 канала
Расположение каналов : Front: L R
Частота : 48,0 КГц
Частота кадров : 46,875 кадров/сек (1024 SPF)
Метод сжатия : С потерями
Задержка видео : 21 мс.
Размер потока : 146 Мбайт (4%)
Язык : Japanese
Default : Нет
Forced : Нет
Текст #1
Идентификатор : 6
Формат : ASS
Идентификатор кодека : S_TEXT/ASS
Идентификатор кодека/Информация : Advanced Sub Station Alpha
Продолжительность : 1 ч. 44 м.
Битрейт : 395 бит/сек
ElementCount : 1644
Метод сжатия : Без потерь
Размер потока : 302 Кбайт (0%)
Заголовок : надписи
Язык : Russian
Default : Да
Forced : Нет
Текст #2
Идентификатор : 7
Формат : ASS
Идентификатор кодека : S_TEXT/ASS
Идентификатор кодека/Информация : Advanced Sub Station Alpha
Продолжительность : 1 ч. 45 м.
Битрейт : 500 бит/сек
ElementCount : 2752
Метод сжатия : Без потерь
Размер потока : 387 Кбайт (0%)
Заголовок : 2nd Division
Язык : Russian
Default : Нет
Forced : Нет
Меню
00:00:00.000 : en:残響 / Echo
00:01:34.094 : en:オープニング / Opening
00:03:21.868 : en:端緒 / Beginning
00:05:13.271 : en:宮水一家 / Miyamizu Family
00:08:37.308 : en:お前は誰だ? / Who Are You?
00:12:11.314 : en:組紐 / Kumihimo
00:14:32.371 : en:口噛み酒 / Kuchikamizake
00:17:22.500 : en:東京 / Tokyo
00:22:57.918 : en:奥寺先輩 / Okudera-senpai
00:27:05.624 : en:異変1 / Accident 1
00:28:16.570 : en:異変2 / Accident 2
00:29:53.542 : en:入れ替わりの日々 / Day by Day
00:32:42.836 : en:御神体 / Object of Worship
00:37:26.995 : en:デート / Date
00:41:57.765 : en:秋祭り / Autumn Festival
00:44:30.334 : en:断絶 / Disconnection
00:45:54.001 : en:探訪 / Searching
00:48:28.656 : en:消えた糸守町 / Itomori Town that Disappeared
00:53:01.387 : en:追求 / Pursuit
00:56:53.869 : en:記憶 / Recollection
01:03:42.318 : en:再演 / Replay
01:06:03.793 : en:作戦会議 / Strategy Meeting
01:09:44.931 : en:予感 / Premonition
01:12:41.816 : en:邂逅 / Chance Meeting
01:16:42.473 : en:カタワレ時 / Twilight
01:21:21.710 : en:うつくしく, もがく / Beautiful, Struggling
01:29:12.806 : en:恋 / Love
01:32:51.858 : en:あと少しだけ / Just a Little Longer
01:37:01.733 : en:君の名は. / Your Name.
01:41:19.615 : en:スタッフ・クレジット / Staff Roll

Скриншоты




Вы не можете начинать темы
Вы не можете отвечать на сообщения
Вы не можете редактировать свои сообщения
Вы не можете удалять свои сообщения
Вы не можете голосовать в опросах
Вы не можете прикреплять файлы к сообщениям
Вы можете скачивать файлы