Время Евы - Фильм / Eve no Jikan Gekijouban (Ёсиура Ясухиро) [Movie] [1 из 1] [Без хардсаба] [RUS(int), JAP+SUB] [2010, романтика, фантастика, повседневность, BDRip] [1080p]


by lev99 ®
25-Фев-2018 13:40

[Цитировать]

Время Евы - Фильм / Eve no Jikan Gekijouban (Ёсиура Ясухиро) [Movie] [1 из 1] [Без хардсаба] [RUS(int), JAP+SUB] [2010, романтика, фантастика, повседневность, BDRip] [1080p]

Время Евы - Фильм / Eve no Jikan Gekijouban
Страна: Япония
Год выпуска: 2010 г.
Жанр: романтика, фантастика, повседневность
Тип : полнометражный фильм, 106 мин.
Режиссер: Ёсиура Ясухиро
Студия: Studio Rikka
Описание: В недалёком будущем использование андроидов стало широко распространённым. Рикуо однажды обнаруживает, что Сами, его домашний андроид, начала действовать независимо, без его указаний. В её журнале событий он обнаруживает странную фразу: «Наслаждаешься ли ты Временем Евы?». Вместе со своим другом Масаки он прослеживает путь Сами и находит необычное кафе под названием «Время Евы». Наги, официантка, объясняет им, что главное правило этого кафе — в нём нет различий между людьми и андроидами. Внутри кафе нимбы андроидов не показываются, а когда посетитель выходит из кафе, дверь автоматически закрывается на две минуты, чтобы никто не мог выйти следом с целью понять, человек это был или андроид...
- world-art - | - kinopoisk -
Возраст: 14+
Рейтинг MPAA: PG-13
Доп. информация: Сохранены оригинальные главы. Видео взято [Zero-Raws].
Качество: BDRip
Тип релиза: Без хардсаба
Формат видео: MKV
Автор рипа: lev99
Видео: x264@L4.1, 1920x1080 (16:9), 23.976 fps, 5203 kbps, 0.105 bit/pixel, 8 bit
Аудио: AAC, 192 Kbps, 48.0Hz, 2 ch Язык: Русский (в составе контейнера);
Озвучка: Двухголосная (жен./муж.) Eladiel & Valkrist
Аудио 2: AAC, 192 Kbps, 48.0Hz, 2 ch Язык: Русский (в составе контейнера);
Озвучка 2: Двухголосная (муж./жен.) OSLIKt & Trina_D
Аудио 3: AAC, 192 Kbps, 48.0Hz, 2 ch Язык: Русский (в составе контейнера);
Озвучка 3: Одноголосная (муж.) Venom64 (он же Inspector Gadjet)
Аудио 4: AAC, 192 Kbps, 48.0Hz, 2 ch Язык: Русский (в составе контейнера);
Озвучка 4: Двухголосная (муж./жен.) VoVZiK13 & Natali12
Аудио 5: AAC, 192 Kbps, 48.0Hz, 2 ch Язык: Японский (в составе контейнера);
Озвучка 5: Оригинальная
Субтитры: ASS встроенные в составе контейнера (надписи); Автор: drauglin
Субтитры 2: ASS встроенные в составе контейнера (FULL); Автор: drauglin
Субтитры 3: SUP встроенные в составе контейнера (FULL); Автор: Николай Караев (Reanimedia),

MediaInfo

Общее
Уникальный идентификатор : 142744834422790575163286311696978490780 (0x6B63A7B4C6306B28DABC8195157D359C)
Полное имя : \[lev99] Eve no Jikan Gekijouban [BDrip 1080p]\[lev99] Eve no Jikan Gekijouban [BDrip 1920x1080 x264 AAC].mkv
Формат : Matroska
Версия формата : Version 4 / Version 2
Размер файла : 4,60 Гбайт
Продолжительность : 1 ч. 46 м.
Общий поток : 6169 Кбит/сек
Название фильма : Eve no Jikan Gekijouban 2010
Дата кодирования : UTC 2018-03-08 09:16:27
Программа кодирования : mkvmerge v21.0.0 ('Tardigrades Will Inherit The Earth') 64-bit
Библиотека кодирования : libebml v1.3.5 + libmatroska v1.4.8
Обложка : Yes
Attachments : cover.jpg
Видео
Идентификатор : 1
Формат : AVC
Формат/Информация : Advanced Video Codec
Профиль формата : High@L4.1
Настройки формата : CABAC / 4 Ref Frames
Параметр CABAC формата : Да
Параметр RefFrames формата : 4 кадра
Идентификатор кодека : V_MPEG4/ISO/AVC
Продолжительность : 1 ч. 46 м.
Битрейт : 5203 Кбит/сек
Ширина : 1920 пикселей
Высота : 1080 пикселей
Соотношение сторон : 16:9
Режим частоты кадров : Постоянный
Частота кадров : 23,976 (24000/1001) кадра/сек
Цветовое пространство : YUV
Субдискретизация насыщенности : 4:2:0
Битовая глубина : 8 бит
Тип развёртки : Прогрессивная
Бит/(Пиксели*Кадры) : 0.105
Размер потока : 3,88 Гбайт (84%)
Библиотека кодирования : x264 core 152 r2851 ba24899
Настройки программы : cabac=1 / ref=4 / deblock=1:1:1 / analyse=0x3:0x133 / me=umh / subme=10 / psy=1 / psy_rd=0.40:0.00 / mixed_ref=1 / me_range=24 / chroma_me=1 / trellis=2 / 8x8dct=1 / cqm=0 / deadzone=21,11 / fast_pskip=1 / chroma_qp_offset=-2 / threads=18 / lookahead_threads=4 / sliced_threads=0 / nr=0 / decimate=1 / interlaced=0 / bluray_compat=0 / constrained_intra=0 / bframes=10 / b_pyramid=2 / b_adapt=2 / b_bias=0 / direct=3 / weightb=1 / open_gop=0 / weightp=2 / keyint=240 / keyint_min=23 / scenecut=40 / intra_refresh=0 / rc_lookahead=60 / rc=crf / mbtree=1 / crf=18.0 / qcomp=0.60 / qpmin=0 / qpmax=69 / qpstep=4 / vbv_maxrate=50000 / vbv_bufsize=62500 / crf_max=0.0 / nal_hrd=none / filler=0 / ip_ratio=1.40 / aq=1:0.60
Язык : Japanese
Default : Да
Forced : Нет
Цветовой диапазон : Limited
Основные цвета : BT.709
Характеристики трансфера : BT.709
Коэффициенты матрицы : BT.709
Аудио #1
Идентификатор : 2
Формат : AAC
Формат/Информация : Advanced Audio Codec
Профиль формата : LC
Идентификатор кодека : A_AAC-2
Продолжительность : 1 ч. 46 м.
Битрейт : 192 Кбит/сек
Каналы : 2 канала
Расположение каналов : Front: L R
Частота : 48,0 КГц
Частота кадров : 46,875 кадров/сек (1024 SPF)
Метод сжатия : С потерями
Задержка видео : 21 мс.
Размер потока : 146 Мбайт (3%)
Заголовок : Eladiel & Valkrist
Язык : Russian
Default : Да
Forced : Нет
Аудио #2
Идентификатор : 3
Формат : AAC
Формат/Информация : Advanced Audio Codec
Профиль формата : LC
Идентификатор кодека : A_AAC-2
Продолжительность : 1 ч. 46 м.
Битрейт : 192 Кбит/сек
Каналы : 2 канала
Расположение каналов : Front: L R
Частота : 48,0 КГц
Частота кадров : 46,875 кадров/сек (1024 SPF)
Метод сжатия : С потерями
Задержка видео : 21 мс.
Размер потока : 146 Мбайт (3%)
Заголовок : OSLIKt & Trina_D
Язык : Russian
Default : Нет
Forced : Нет
Аудио #3
Идентификатор : 4
Формат : AAC
Формат/Информация : Advanced Audio Codec
Профиль формата : LC
Идентификатор кодека : A_AAC-2
Продолжительность : 1 ч. 46 м.
Битрейт : 192 Кбит/сек
Каналы : 2 канала
Расположение каналов : Front: L R
Частота : 48,0 КГц
Частота кадров : 46,875 кадров/сек (1024 SPF)
Метод сжатия : С потерями
Задержка видео : 21 мс.
Размер потока : 146 Мбайт (3%)
Заголовок : Venom64
Язык : Russian
Default : Нет
Forced : Нет
Аудио #4
Идентификатор : 5
Формат : AAC
Формат/Информация : Advanced Audio Codec
Профиль формата : LC
Идентификатор кодека : A_AAC-2
Продолжительность : 1 ч. 46 м.
Битрейт : 192 Кбит/сек
Каналы : 2 канала
Расположение каналов : Front: L R
Частота : 48,0 КГц
Частота кадров : 46,875 кадров/сек (1024 SPF)
Метод сжатия : С потерями
Задержка видео : 21 мс.
Размер потока : 146 Мбайт (3%)
Заголовок : VoVZiK13 & Natali12
Язык : Russian
Default : Нет
Forced : Нет
Аудио #5
Идентификатор : 6
Формат : AAC
Формат/Информация : Advanced Audio Codec
Профиль формата : LC
Идентификатор кодека : A_AAC-2
Продолжительность : 1 ч. 46 м.
Битрейт : 192 Кбит/сек
Каналы : 2 канала
Расположение каналов : Front: L R
Частота : 48,0 КГц
Частота кадров : 46,875 кадров/сек (1024 SPF)
Метод сжатия : С потерями
Задержка видео : 21 мс.
Размер потока : 146 Мбайт (3%)
Язык : Japanese
Default : Нет
Forced : Нет
Текст #1
Идентификатор : 7
Формат : ASS
Идентификатор кодека : S_TEXT/ASS
Идентификатор кодека/Информация : Advanced Sub Station Alpha
Продолжительность : 1 ч. 43 м.
Битрейт : 16 бит/сек
ElementCount : 119
Метод сжатия : Без потерь
Размер потока : 12,3 Кбайт (0%)
Заголовок : надписи
Язык : Russian
Default : Да
Forced : Нет
Текст #2
Идентификатор : 8
Формат : ASS
Идентификатор кодека : S_TEXT/ASS
Идентификатор кодека/Информация : Advanced Sub Station Alpha
Продолжительность : 1 ч. 45 м.
Битрейт : 183 бит/сек
ElementCount : 1766
Метод сжатия : Без потерь
Размер потока : 142 Кбайт (0%)
Язык : Russian
Default : Нет
Forced : Нет
Меню
00:00:00.000 : en:Chapter 01
00:05:10.644 : en:Chapter 02
00:10:24.457 : en:Chapter 03
00:16:10.553 : en:Chapter 04
00:21:51.101 : en:Chapter 05
00:29:23.095 : en:Chapter 06
00:35:22.495 : en:Chapter 07
00:38:34.062 : en:Chapter 08
00:45:37.526 : en:Chapter 09
00:50:15.221 : en:Chapter 10
00:54:48.785 : en:Chapter 11
01:01:49.456 : en:Chapter 12
01:09:10.563 : en:Chapter 13
01:16:05.311 : en:Chapter 14
01:20:40.169 : en:Chapter 15
01:28:10.535 : en:Chapter 16
01:40:36.239 : en:Chapter 17

Скриншоты

Скачать

Скачать бесплатно и на максимальной скорости!

Как скачивать? · Что такое торрент? · Рейтинг и ограничения




Вы не можете начинать темы
Вы не можете отвечать на сообщения
Вы не можете редактировать свои сообщения
Вы не можете удалять свои сообщения
Вы не можете голосовать в опросах
Вы не можете прикреплять файлы к сообщениям
Вы не можете скачивать файлы