Пламенный лабиринт / Labyrinth of Flames (Нисидзима Кацухико) [OVA] [2 из 2] [Без хардсаба] [RUS(int), JAP+SUB] [2000, боевик, самурайский боевик, комедия, этти, сэйнэн, BDRip] [1080p]


Размер:  1.51 GB   |    Зарегистрирован:  4 месяца 28 дней   |    Скачан:  0 раз
Сидов:  3  [  0 KB/s  ]   Личеров:  2  [  0 KB/s  ]   Подробная статистика пиров
by lev99 ®
23-Фев-2018 10:09

[Цитировать]

Пламенный лабиринт / Labyrinth of Flames (Нисидзима Кацухико) [OVA] [2 из 2] [Без хардсаба] [RUS(int), JAP+SUB] [2000, боевик, самурайский боевик, комедия, этти, сэйнэн, BDRip] [1080p]

Пламенный лабиринт / Labyrinth of Flames
960x720 (4:3) | 1440x1080 (4:3) | 1920x1080 (16:9)
Страна: Япония
Год выпуска: 2000 г.
Жанр: боевик, самурайский боевик, комедия, этти, сэйнэн
Тип: OVA
Эпизоды: 2 из 2
Продолжительность: 35 мин.
Режиссер: Нисидзима Кацухико
Студия: Studio Fantasia
Описание: Современная Россия, Дальний Восток, параллельный мир.
В середине XIX века после поражения в Японии сторонников сёгуната Токугава его наиболее ярые приверженцы отплыли в Россию. Выкупив у царя большой участок земли, они построили город, спроектированный в полном соответствии с японской традицией - храмами, замками и так далее. Так на Дальнем Востоке появился японский анклав - последний оплот культуры Древней Японии.
Юный россиянин Галан помешан на японской культуре. Он мечтает стать настоящим самураем и занимается кэндо - правда, без особого успеха. Какова же его радость, когда красавица Нацу из "русской Японии" дарит ему настоящую древнюю когатану (малый меч)! И, конечно, Галан с радостью соглашается поехать к ней домой, чтобы посмотреть коллекцию оружия ее отца.
Однако вскоре выясняется, что у Нацу на Галана вполне определенные планы. Ведь она - дочь правителя "русской Японии", и в ее роду древний меч дарят будущим зятьям... С другой стороны, отец Нацу совсем не собирается соглашаться с ее выбором. Он уже подобрал дочери жениха.
- world-art - | - kinopoisk -
Возраст: 16+
Рейтинг MPAA: R
Доп. информация: 4:3 переделан в 16:9. Сохранены оригинальные главы. Изменён цвет. Видео взято [mottoj]
Качество: BDRip (DVDrip)
Тип релиза: Без хардсаба
Формат видео: MKV
Автор рипа: lev99
Видео: x264@L4.1, 1920x1080 (16:9), 23.976 fps, 2939 kbps, 0.059 bit/pixel, 8 bit
Аудио: AAC, 192 Kbps, 48.0Hz, 2 ch Язык: Русский (в составе контейнера); Озвучка: Одноголосная (жен.) Persona99 / GSGroup
Аудио 2: AAC, 192 Kbps, 48.0Hz, 2 ch Язык Японский (в составе контейнера) ; Озвучка 2: Оригинальная
Субтитры: ASS встроенные в составе контейнера Язык субтитров русский; Перевод: Blast Off

Названия эпизодов

01. Лабиринт Самурая? Любвиринт?
02. Сокровище Лабиринта? Любвиринт?

MediaInfo

Общее
Уникальный идентификатор : 220609286715855428981451642660256629025 (0xA5F7CD99E6BBCE032C2BDBDA1EB64121)
Полное имя : [lev99] Honoo no Labyrinth OVA [lev99] [BDRip 1920x1080]\[lev99] Honoo no Labyrinth OVA - 01 [BDrip 1920x1080 x264 AAC].mkv
Формат : Matroska
Версия формата : Version 4 / Version 2
Размер файла : 775 Мбайт
Продолжительность : 32 м. 33 с.
Общий поток : 3326 Кбит/сек
Название фильма : Honoo no Labyrinth OVA - 01
Дата кодирования : UTC 2018-02-23 09:10:07
Программа кодирования : mkvmerge v20.0.0 ('I Am The Sun') 64-bit
Библиотека кодирования : libebml v1.3.5 + libmatroska v1.4.8
Обложка : Yes
Attachments : cover.jpg
Видео
Идентификатор : 1
Формат : AVC
Формат/Информация : Advanced Video Codec
Профиль формата : High@L4.1
Настройки формата : CABAC / 4 Ref Frames
Параметр CABAC формата : Да
Параметр RefFrames формата : 4 кадра
Идентификатор кодека : V_MPEG4/ISO/AVC
Продолжительность : 32 м. 33 с.
Битрейт : 2939 Кбит/сек
Ширина : 1920 пикселей
Высота : 1080 пикселей
Соотношение сторон : 16:9
Соотношение сторон в оригинале : 16:9
Режим частоты кадров : Постоянный
Частота кадров : 23,976 (24000/1001) кадра/сек
Цветовое пространство : YUV
Субдискретизация насыщенности : 4:2:0
Битовая глубина : 8 бит
Тип развёртки : Прогрессивная
Бит/(Пиксели*Кадры) : 0.059
Размер потока : 685 Мбайт (88%)
Библиотека кодирования : x264 core 152 r2851 ba24899
Настройки программы : cabac=1 / ref=4 / deblock=1:-1:-1 / analyse=0x3:0x133 / me=umh / subme=10 / psy=1 / psy_rd=1.00:0.15 / mixed_ref=1 / me_range=24 / chroma_me=1 / trellis=2 / 8x8dct=1 / cqm=0 / deadzone=21,11 / fast_pskip=1 / chroma_qp_offset=-3 / threads=2 / lookahead_threads=1 / sliced_threads=0 / nr=0 / decimate=1 / interlaced=0 / bluray_compat=0 / constrained_intra=0 / bframes=8 / b_pyramid=2 / b_adapt=2 / b_bias=0 / direct=3 / weightb=1 / open_gop=0 / weightp=2 / keyint=240 / keyint_min=23 / scenecut=40 / intra_refresh=0 / rc_lookahead=60 / rc=2pass / mbtree=1 / bitrate=2939 / ratetol=1.0 / qcomp=0.60 / qpmin=0 / qpmax=69 / qpstep=4 / cplxblur=20.0 / qblur=0.5 / vbv_maxrate=50000 / vbv_bufsize=62500 / nal_hrd=none / filler=0 / ip_ratio=1.40 / aq=1:1.00
Язык : Japanese
Default : Да
Forced : Нет
Цветовой диапазон : Limited
Основные цвета : BT.709
Характеристики трансфера : BT.709
Коэффициенты матрицы : BT.709
Аудио #1
Идентификатор : 2
Формат : AAC
Формат/Информация : Advanced Audio Codec
Профиль формата : LC
Идентификатор кодека : A_AAC-2
Продолжительность : 32 м. 32 с.
Битрейт : 192 Кбит/сек
Каналы : 2 канала
Расположение каналов : Front: L R
Частота : 48,0 КГц
Частота кадров : 46,875 кадров/сек (1024 SPF)
Метод сжатия : С потерями
Задержка видео : 21 мс.
Размер потока : 44,7 Мбайт (6%)
Заголовок : Persona99
Язык : Russian
Default : Да
Forced : Нет
Аудио #2
Идентификатор : 3
Формат : AAC
Формат/Информация : Advanced Audio Codec
Профиль формата : LC
Идентификатор кодека : A_AAC-2
Продолжительность : 32 м. 32 с.
Битрейт : 192 Кбит/сек
Каналы : 2 канала
Расположение каналов : Front: L R
Частота : 48,0 КГц
Частота кадров : 46,875 кадров/сек (1024 SPF)
Метод сжатия : С потерями
Задержка видео : 21 мс.
Размер потока : 44,7 Мбайт (6%)
Язык : Japanese
Default : Нет
Forced : Нет
Текст
Идентификатор : 4
Формат : SSA
Идентификатор кодека : S_TEXT/SSA
Идентификатор кодека/Информация : Sub Station Alpha
Продолжительность : 32 м. 25 с.
Битрейт : 168 бит/сек
ElementCount : 456
Метод сжатия : Без потерь
Размер потока : 40,0 Кбайт (0%)
Язык : Russian
Default : Нет
Forced : Нет
Меню
00:00:00.000 : en:Chapter 2
00:01:37.331 : en:Chapter 3
00:03:25.472 : en:Chapter 4
00:09:56.297 : en:Chapter 5
00:18:55.135 : en:Chapter 6
00:28:36.216 : en:Chapter 7
00:31:48.475 : en:Chapter 8


Последний раз редактировалось: lev99 (2018-04-20 08:15), всего редактировалось 1 раз

bot
20-Апр-2018 08:12 (спустя 1 месяц 24 дня)


Топик был перенесен из форума Аниме (основной подраздел) в форум Аниме (HD Video)
lev99


Вы не можете начинать темы
Вы не можете отвечать на сообщения
Вы не можете редактировать свои сообщения
Вы не можете удалять свои сообщения
Вы не можете голосовать в опросах
Вы не можете прикреплять файлы к сообщениям
Вы можете скачивать файлы