Пламенный лабиринт / Labyrinth of Flames (Нисидзима Кацухико) [OVA] [2 из 2] [Без хардсаба] [RUS(int), JAP+SUB] [2000, боевик, самурайский боевик, комедия, этти, сэйнэн, DVDRip] [1080p]


Размер:  1.72 GB   |    Зарегистрирован:  6 месяцев 25 дней   |    Скачан:  0 раз
Сидов:  1  [  0 KB/s  ]   Подробная статистика пиров
by lev99 ®
21-Фев-2018 10:12

[Цитировать]

Пламенный лабиринт / Labyrinth of Flames (Нисидзима Кацухико) [OVA] [2 из 2] [Без хардсаба] [RUS(int), JAP+SUB] [2000, боевик, самурайский боевик, комедия, этти, сэйнэн, DVDRip] [1080p]

Пламенный лабиринт / Labyrinth of Flames / Honoo no Labyrinth
960x720 (4:3) | 1440x1080 (4:3) | 1920x1080 (16:9)
Страна: Япония
Год выпуска: 2000 г.
Жанр: боевик, самурайский боевик, комедия, этти, сэйнэн
Тип: OVA (2 эп.), 35 мин.
Режиссер: Нисидзима Кацухико
Студия: Studio Fantasia
Описание: Современная Россия, Дальний Восток, параллельный мир.
В середине XIX века после поражения в Японии сторонников сёгуната Токугава его наиболее ярые приверженцы отплыли в Россию. Выкупив у царя большой участок земли, они построили город, спроектированный в полном соответствии с японской традицией - храмами, замками и так далее. Так на Дальнем Востоке появился японский анклав - последний оплот культуры Древней Японии.
Юный россиянин Галан помешан на японской культуре. Он мечтает стать настоящим самураем и занимается кэндо - правда, без особого успеха. Какова же его радость, когда красавица Нацу из "русской Японии" дарит ему настоящую древнюю когатану (малый меч)! И, конечно, Галан с радостью соглашается поехать к ней домой, чтобы посмотреть коллекцию оружия ее отца.
Однако вскоре выясняется, что у Нацу на Галана вполне определенные планы. Ведь она - дочь правителя "русской Японии", и в ее роду древний меч дарят будущим зятьям... С другой стороны, отец Нацу совсем не собирается соглашаться с ее выбором. Он уже подобрал дочери жениха.
- world-art - | - kinopoisk -
Возраст: 16+
Рейтинг MPAA: R
Доп. информация: Сохранены оригинальные главы. В директории Bonus есть OP и ED.
Качество: DVDRip
Тип релиза: Без хардсаба
Формат видео: MKV
Автор рипа: [mottoj]
Видео: x264@L4.1, 1440x1080 (4:3), 23.976 fps, 2939 kbps, 0.079 bit/pixel, 8 bit
Аудио: AAC, 192 Kbps, 48.0Hz, 2 ch Язык: Русский (в составе контейнера); Озвучка: Одноголосная (жен.) Persona99 / GSGroup
Аудио 2: AAC, 192 Kbps, 48.0Hz, 2 ch Язык Японский (в составе контейнера) ; Озвучка 2: Оригинальная
Субтитры: ASS встроенные в составе контейнера Язык субтитров русский; Перевод: Blast Off

Названия эпизодов

01. Лабиринт Самурая? Любвиринт?
02. Сокровище Лабиринта? Любвиринт?

MediaInfo

Общее
Уникальный идентификатор : 212251525915487125006536141999079405319 (0x9FAE282DE44777DC58D0FB541BC3B707)
Полное имя : \Honoo no Labyrinth OVA [lev99] [DVDRip 1080p]\[mottoj] Honoo no Labyrinth OVA - 01 [DVDRip 1440x1080 x264 AAC].mkv
Формат : Matroska
Версия формата : Version 4 / Version 2
Размер файла : 775 Мбайт
Продолжительность : 32 м. 33 с.
Общий поток : 3326 Кбит/сек
Название фильма : Honoo no Labyrinth OVA - 01
Дата кодирования : UTC 2018-02-20 15:08:37
Программа кодирования : mkvmerge v20.0.0 ('I Am The Sun') 64-bit
Библиотека кодирования : libebml v1.3.5 + libmatroska v1.4.8
Обложка : Yes
Attachments : cover.jpg
Видео
Идентификатор : 1
Формат : AVC
Формат/Информация : Advanced Video Codec
Профиль формата : High@L4.1
Настройки формата : CABAC / 5 Ref Frames
Параметр CABAC формата : Да
Параметр RefFrames формата : 5 кадров
Идентификатор кодека : V_MPEG4/ISO/AVC
Продолжительность : 32 м. 33 с.
Битрейт : 2939 Кбит/сек
Ширина : 1440 пикселей
Высота : 1080 пикселей
Соотношение сторон : 4:3
Режим частоты кадров : Постоянный
Частота кадров : 23,976 (24000/1001) кадра/сек
Цветовое пространство : YUV
Субдискретизация насыщенности : 4:2:0
Битовая глубина : 8 бит
Тип развёртки : Прогрессивная
Бит/(Пиксели*Кадры) : 0.079
Размер потока : 685 Мбайт (88%)
Библиотека кодирования : x264 core 152 r2851 ba24899
Настройки программы : cabac=1 / ref=5 / deblock=1:-2:-2 / analyse=0x3:0x133 / me=umh / subme=10 / psy=1 / psy_rd=1.00:0.25 / mixed_ref=1 / me_range=24 / chroma_me=1 / trellis=2 / 8x8dct=1 / cqm=0 / deadzone=6,6 / fast_pskip=1 / chroma_qp_offset=-4 / threads=2 / lookahead_threads=1 / sliced_threads=0 / nr=0 / decimate=0 / interlaced=0 / bluray_compat=0 / constrained_intra=0 / bframes=8 / b_pyramid=2 / b_adapt=2 / b_bias=0 / direct=3 / weightb=1 / open_gop=0 / weightp=2 / keyint=240 / keyint_min=23 / scenecut=40 / intra_refresh=0 / rc_lookahead=60 / rc=2pass / mbtree=1 / bitrate=2939 / ratetol=1.0 / qcomp=0.80 / qpmin=0 / qpmax=69 / qpstep=4 / cplxblur=20.0 / qblur=0.5 / vbv_maxrate=50000 / vbv_bufsize=62500 / nal_hrd=none / filler=0 / ip_ratio=1.10 / aq=1:0.50
Язык : Japanese
Default : Да
Forced : Нет
Цветовой диапазон : Limited
Основные цвета : BT.709
Характеристики трансфера : BT.709
Коэффициенты матрицы : BT.709
Аудио #1
Идентификатор : 2
Формат : AAC
Формат/Информация : Advanced Audio Codec
Профиль формата : LC
Идентификатор кодека : A_AAC-2
Продолжительность : 32 м. 32 с.
Битрейт : 192 Кбит/сек
Каналы : 2 канала
Расположение каналов : Front: L R
Частота : 48,0 КГц
Частота кадров : 46,875 кадров/сек (1024 SPF)
Метод сжатия : С потерями
Задержка видео : 21 мс.
Размер потока : 44,7 Мбайт (6%)
Заголовок : Persona99
Язык : Russian
Default : Да
Forced : Нет
Аудио #2
Идентификатор : 3
Формат : AAC
Формат/Информация : Advanced Audio Codec
Профиль формата : LC
Идентификатор кодека : A_AAC-2
Продолжительность : 32 м. 32 с.
Битрейт : 192 Кбит/сек
Каналы : 2 канала
Расположение каналов : Front: L R
Частота : 48,0 КГц
Частота кадров : 46,875 кадров/сек (1024 SPF)
Метод сжатия : С потерями
Задержка видео : 21 мс.
Размер потока : 44,7 Мбайт (6%)
Язык : Japanese
Default : Нет
Forced : Нет
Текст
Идентификатор : 4
Формат : SSA
Идентификатор кодека : S_TEXT/SSA
Идентификатор кодека/Информация : Sub Station Alpha
Продолжительность : 32 м. 25 с.
Битрейт : 168 бит/сек
ElementCount : 456
Метод сжатия : Без потерь
Размер потока : 40,0 Кбайт (0%)
Язык : Russian
Default : Нет
Forced : Нет
Меню
00:00:00.000 : en:Chapter 2
00:01:37.331 : en:Chapter 3
00:03:25.472 : en:Chapter 4
00:09:56.297 : en:Chapter 5
00:18:55.135 : en:Chapter 6
00:28:36.216 : en:Chapter 7
00:31:48.475 : en:Chapter 8

Скриншоты




Вы не можете начинать темы
Вы не можете отвечать на сообщения
Вы не можете редактировать свои сообщения
Вы не можете удалять свои сообщения
Вы не можете голосовать в опросах
Вы не можете прикреплять файлы к сообщениям
Вы можете скачивать файлы