Король магических стрел и Ванадис / Madan no Ou to Vanadis (Сато Тацуо) [TV] [13+14 из 13+14] [Без хардсаба] [RUS(int), JAP+SUB] [2014, боевик, приключения, этти, фэнтези, гарем, романтика, BDRip] [1080p]


Размер:  8.22 GB   |    Зарегистрирован:  5 месяцев 14 дней   |    Скачан:  0 раз

Полного источника не было: 11 дней

by lev99 ®
17-Фев-2018 11:55

[Цитировать]

Король магических стрел и Ванадис / Madan no Ou to Vanadis (Сато Тацуо) [TV] [13+14 из 13+14] [Без хардсаба] [RUS(int), JAP+SUB] [2014, боевик, приключения, этти, фэнтези, гарем, романтика, BDRip] [1080p]

Король магических стрел и Ванадис / Madan no Ou to Vanadis
Страна: Япония
Год выпуска: 2014 г.
Жанр: боевик, приключения, этти, фэнтези, гарем, романтика
Тип: ТВ (13 эп. + 14 спэшлы), 25 мин.
Продолжительность: ТВ (13 эп.), по 25 мин. + specials (14 эп.), по 3 мин.
Режиссер: Сато Тацуо
Студия: Satelight
Описание: В мире, похожем на средневековую Европу, королевство Штед постоянно воюет. А как еще, ведь на службе короля находятся семеро Ванадис – девушек, обладающих чудесным оружием и отборной личной гвардией. Впрочем, в таланты воительниц верят не все. Например, войска королевства Брюн, узнав, что впятеро превосходят вторгшийся отряд Ванадис Элеоноры Вилтарии, начали заранее праздновать победу. После битвы оставшиеся в живых поменяли мнение, в их числе оказался граф Тигрвурмуд Ворн. Платить выкуп было нечем – пришлось молодому воину давать клятву, что будет год служить победительнице.
Да и стоит ли возвращаться? Тигр прекрасно помнил, как его, нищего пограничного графа, столичные щеголи осыпали насмешками за потертую охотничью одежду и дедовский лук. А вот Элен относится к подчиненным справедливо и ценит честность, отвагу и воинские умения. С последними у Тигра все нормально – даже с обычным луком он хорош, а близость прекрасной госпожи пробуждает прямо-таки дьявольское мастерство. Вот только амуры крутить некогда – с родины дошли вести, что алчные вельможи решили наказать «изменника», залив кровью его родовые земли. Поможет ли хозяйка? Поднимутся ли верные люди? Смотрите новую сагу о войне, любви и политике! © Hollow, World Art
- world-art - | - kinopoisk -
Возраст: 16+
Рейтинг MPAA: R
Доп. информация: Сохранены оригинальные главы. В директории Bonus есть OP и ED, отдельными файлами. В директории Special - спэшл. видео взято [Salender-Raws].
Качество: BDRip
Тип релиза: Без хардсаба
Формат видео: MKV
Автор рипа: lev99
Видео: x264@L4.1, 1920x1080 (16:9), 23.976 fps, ~2939 Kbps, ~0.059 bit/pixel, 8 bits
Аудио: AAC, 192 Kbps, 48.0Hz, 2 ch Язык: Русский (в составе контейнера); Озвучка: Одноголосная (жен.) Persona99 / GSGroup
Аудио 2: AAC, 192 Kbps, 48.0Hz, 2 ch Язык Японский ; Озвучка 2: Оригинальная
Субтитры: ASS встроенные в составе контейнера Язык субтитров русский;
Перевод: Koushin Редактура: Shifroval
Перевод песен: General Tab (1-10) Перевод: Buka63 Перевод песен: General Tab (11-13); Special: Перевод: Koushin Редактура: Shifroval (0-5) Перевод: Buka63 (6-13)

Список эпизодов

01. Принцесса ветра на поле брани
02. Возвращение домой
03. Возвращение легендарного лучника
04. Снежная принцесса морозной волны
05. Взятие татрийских гор
06. Чёрный рыцарь
07. Защитить
08. Две тысячи против двадцати тысяч
09. Ураган молний и Сверкающее пламя
10. Ормейская кампания
11. Две девы войны
12. Святая пещера
13. Расширение мира
Special - 00
Special - 01
S02. Прожорливая дева войны
S03. Пробуждение плюшевого мишки
S04. Любительница мишек
S05. Милый мишка и то самое место
S06. Нечто тёплое и нечто милое
S07. Настоящее сокровище Принцессы
S08. Зубоскал против Лысого
S09. Тайная встреча
S10. Истина где-то рядом
S11. Тайное становится явным
S12. Интерлюдия
S13. Другой эпилог

Подробные тех. данные

Общее
Уникальный идентификатор : 331454903170530935584031848104490741697 (0xF95BE46F47E0410BCF665C51C370AFC1)
Полное имя : \Madan no Ou to Vanadis [lev99] [BD] [1080p]\[Salender-Raws] Madan no Ou to Vanadis - 01 [BDRip 1920x1080 x264 AAC].mkv
Формат : Matroska
Версия формата : Version 4 / Version 2
Размер файла : 575 Мбайт
Продолжительность : 24 м. 11 с.
Общий поток : 3324 Кбит/сек
Название фильма : Madan no Ou to Vanadis - 01
Дата кодирования : UTC 2018-02-16 09:35:19
Программа кодирования : mkvmerge v20.0.0 ('I Am The Sun') 64-bit
Библиотека кодирования : libebml v1.3.5 + libmatroska v1.4.8
Обложка : Yes
Attachments : cover.jpg
Видео
Идентификатор : 1
Формат : AVC
Формат/Информация : Advanced Video Codec
Профиль формата : High@L4.1
Настройки формата : CABAC / 4 Ref Frames
Параметр CABAC формата : Да
Параметр RefFrames формата : 4 кадра
Идентификатор кодека : V_MPEG4/ISO/AVC
Продолжительность : 24 м. 11 с.
Битрейт : 2939 Кбит/сек
Ширина : 1920 пикселей
Высота : 1080 пикселей
Соотношение сторон : 16:9
Режим частоты кадров : Постоянный
Частота кадров : 23,976 (24000/1001) кадра/сек
Цветовое пространство : YUV
Субдискретизация насыщенности : 4:2:0
Битовая глубина : 8 бит
Тип развёртки : Прогрессивная
Бит/(Пиксели*Кадры) : 0.059
Размер потока : 509 Мбайт (88%)
Библиотека кодирования : x264 core 152 r2851 ba24899
Настройки программы : cabac=1 / ref=4 / deblock=1:-2:-2 / analyse=0x3:0x133 / me=umh / subme=10 / psy=1 / psy_rd=1.00:0.25 / mixed_ref=1 / me_range=24 / chroma_me=1 / trellis=2 / 8x8dct=1 / cqm=0 / deadzone=6,6 / fast_pskip=1 / chroma_qp_offset=-4 / threads=2 / lookahead_threads=1 / sliced_threads=0 / nr=0 / decimate=0 / interlaced=0 / bluray_compat=0 / constrained_intra=0 / bframes=8 / b_pyramid=2 / b_adapt=2 / b_bias=0 / direct=1 / weightb=1 / open_gop=0 / weightp=2 / keyint=240 / keyint_min=23 / scenecut=40 / intra_refresh=0 / rc_lookahead=60 / rc=2pass / mbtree=1 / bitrate=2939 / ratetol=1.0 / qcomp=0.80 / qpmin=0 / qpmax=69 / qpstep=4 / cplxblur=20.0 / qblur=0.5 / vbv_maxrate=50000 / vbv_bufsize=62500 / nal_hrd=none / filler=0 / ip_ratio=1.10 / aq=1:0.50
Язык : Japanese
Default : Да
Forced : Нет
Цветовой диапазон : Limited
Основные цвета : BT.709
Характеристики трансфера : BT.709
Коэффициенты матрицы : BT.709
Аудио #1
Идентификатор : 2
Формат : AAC
Формат/Информация : Advanced Audio Codec
Профиль формата : LC
Идентификатор кодека : A_AAC-2
Продолжительность : 23 м. 39 с.
Битрейт : 192 Кбит/сек
Каналы : 2 канала
Расположение каналов : Front: L R
Частота : 48,0 КГц
Частота кадров : 46,875 кадров/сек (1024 SPF)
Метод сжатия : С потерями
Задержка видео : 21 мс.
Размер потока : 32,5 Мбайт (6%)
Заголовок : Persona99
Язык : Russian
Default : Да
Forced : Нет
Аудио #2
Идентификатор : 3
Формат : AAC
Формат/Информация : Advanced Audio Codec
Профиль формата : LC
Идентификатор кодека : A_AAC-2
Продолжительность : 24 м. 11 с.
Битрейт : 192 Кбит/сек
Каналы : 2 канала
Расположение каналов : Front: L R
Частота : 48,0 КГц
Частота кадров : 46,875 кадров/сек (1024 SPF)
Метод сжатия : С потерями
Задержка видео : 21 мс.
Размер потока : 33,2 Мбайт (6%)
Язык : Japanese
Default : Нет
Forced : Нет
Текст #1
Идентификатор : 4
Формат : ASS
Идентификатор кодека : S_TEXT/ASS
Идентификатор кодека/Информация : Advanced Sub Station Alpha
Продолжительность : 23 м. 10 с.
Битрейт : 39 бит/сек
ElementCount : 60
Метод сжатия : Без потерь
Размер потока : 6,72 Кбайт (0%)
Заголовок : надписи
Язык : Russian
Default : Да
Forced : Нет
Текст #2
Идентификатор : 5
Формат : ASS
Идентификатор кодека : S_TEXT/ASS
Идентификатор кодека/Информация : Advanced Sub Station Alpha
Продолжительность : 23 м. 30 с.
Битрейт : 174 бит/сек
ElementCount : 365
Метод сжатия : Без потерь
Размер потока : 30,1 Кбайт (0%)
Язык : Russian
Default : Нет
Forced : Нет
Меню
00:00:00.000 : en:00:00:00.000
00:00:24.024 : en:00:00:24.024
00:01:54.030 : en:00:01:54.030
00:11:57.049 : en:00:11:57.049
00:22:10.078 : en:00:22:10.078
00:23:40.085 : en:00:23:40.085
00:24:11.616 : en:00:24:11.616

Скриншоты




Вы не можете начинать темы
Вы не можете отвечать на сообщения
Вы не можете редактировать свои сообщения
Вы не можете удалять свои сообщения
Вы не можете голосовать в опросах
Вы не можете прикреплять файлы к сообщениям
Вы можете скачивать файлы