Темный дворецкий [ТВ-3] / Black Butler: Book of Circus (Абэ Нориюки) [TV] [10 из 10] [Без хардсаба] [RUS(int), JAP+SUB] [2014, детектив, мистика, BDRip] [1080p]


Размер:  5.66 GB   |    Зарегистрирован:  6 месяцев 6 дней   |    Скачан:  0 раз

Полного источника не было: 1 день 2 часа

by lev99 ®
12-Фев-2018 20:53

[Цитировать]

Темный дворецкий [ТВ-3] / Black Butler: Book of Circus (Абэ Нориюки) [TV] [10 из 10] [Без хардсаба] [RUS(int), JAP+SUB] [2014, детектив, мистика, BDRip] [1080p]

Темный дворецкий [ТВ-3] / Black Butler: Book of Circus
Страна: Япония
Год выпуска: 2014 г.
Жанр: детектив, мистика
Тип: TV
Эпизоды: 10 из 10
Продолжительность: 25 мин.
Режиссер: Абэ Нориюки
Студия: A-1 Pictures Inc.
Описание: В доброй старой Англии не только верят в духов и демонов, но и активно с ними сотрудничают. А почему бы нет, ведь «темные силы» людям куда ближе и понятнее. Другое дело, что каждый должен вести себя в рамках приличий и сословных привилегий – что можно простить британскому джентльмену, не позволено простолюдинам, тем более заезжим шутам и фиглярам. Поэтому, когда вокруг цирка «Ноев Ковчег» начинают происходить странные события, в дело вступают доверенное лицо королевы Виктории и его верный подручный!
Итак, мы снова возвращаемся к началу приключений полюбившихся главных героев. Совсем недавно Сиэль, 12-летний граф Фантомхайв, в минуту отчаяния заключил договор с демоном Себастианом, заложив душу в обмен на спасение и верную службу. Но до окончательного расчета еще далеко, а вот использовать таланты демона-дворецкого надо уже сейчас – ведь красавчик в черном способен на многое. Например, внедриться вместе с юным хозяином в подозрительный «Ноев Ковчег», а там можно от души покидать кинжалы, попрыгать на трапеции и поработать бок о бок с самим богом смерти! Почему бы не поискать истину в цирке – ведь у нас вся жизнь и так сплошной цирк! © Hollow, World Art
- world-art - | - kinopoisk -
Доп. информация: Видео взято [sergey_krs]
Возраст: 18+
Рейтинг MPAA: NC-17
Качество: BDRip
Тип релиза: Без хардсаба
Формат видео: MKV
Релиз/Автор рипа: GSGroup / lev99
Видео: x264@L4.1, 1920x1080 (16:9), 23.976 fps, ~2939 kbps, ~0.059 bit/pixel, 8 bits
Аудио: AAC, 192 kbps, 192 bits, 48.0 KHz, 2 ch Язык: Русский (в составе контейнера); Озвучка: Одноголосная (жен.) Persona99 / GSGroup
Аудио 2: AAC, 192 kbps, 192 bits, 48.0 KHz, 2 ch Язык: Русский (в составе контейнера); Озвучка 2: Оригинальная
Субтитры: ASS встроенные в составе контейнера Язык субтитров русский;
Перевод: Редактор: Azrael
Переводчик/Перевод песен/Оформление: Nika_Elrik

Скриншоты

Список эпизодов

01. Безупречный дворецкий
02. Выступление дворецкого
03. Нанятый дворецкий
04. Сотрудничающий дворецкий
05. Парящий дворецкий
06. Уполномоченный дворецкий
07. Заботливый дворецкий
08. Насмешливый дворецкий
09. Безмятежный дворецкий
10. Исполнительный дворецкий

Серия состоит из

#1 Темный дворецкий [ТВ-1] - ТВ (24 эп. + спэшл), адаптация манги, 2008
#2 Темный дворецкий [ТВ-2] - ТВ (12 эп. + 6 спэшлов), продолжение, 2010
#3 Темный дворецкий [ТВ-3] - ТВ (10 эп.), адаптация манги, 2014
#4 Темный дворецкий OVA - OVA (2 эп.), продолжение, 2014

MediaInfo

Общее
Уникальный идентификатор : 306712767730507781256521723500736574868 (0xE6BEBAF98403ED260DD70F2339807594)
Полное имя : D:\downloads\Kuroshitsuji - Book of Circus [lev99] [BDrip]\[sergey_krs] Kuroshitsuji - Book of Circus - 01 [BDRip 1920x1080 x264 AAC].mkv
Формат : Matroska
Версия формата : Version 4 / Version 2
Размер файла : 577 Мбайт
Продолжительность : 24 м. 15 с.
Общий поток : 3328 Кбит/сек
Название фильма : Kuroshitsuji - Book of Circus - 01
Дата кодирования : UTC 2018-02-12 18:18:53
Программа кодирования : mkvmerge v20.0.0 ('I Am The Sun') 64-bit
Библиотека кодирования : libebml v1.3.5 + libmatroska v1.4.8
Обложка : Yes
Attachments : cover.jpg
Видео
Идентификатор : 1
Формат : AVC
Формат/Информация : Advanced Video Codec
Профиль формата : High@L4.1
Настройки формата : CABAC / 4 Ref Frames
Параметр CABAC формата : Да
Параметр RefFrames формата : 4 кадра
Идентификатор кодека : V_MPEG4/ISO/AVC
Продолжительность : 24 м. 13 с.
Битрейт : 2939 Кбит/сек
Ширина : 1920 пикселей
Высота : 1080 пикселей
Соотношение сторон : 16:9
Режим частоты кадров : Постоянный
Частота кадров : 23,976 (24000/1001) кадра/сек
Цветовое пространство : YUV
Субдискретизация насыщенности : 4:2:0
Битовая глубина : 8 бит
Тип развёртки : Прогрессивная
Бит/(Пиксели*Кадры) : 0.059
Размер потока : 510 Мбайт (88%)
Библиотека кодирования : x264 core 152 r2851 ba24899
Настройки программы : cabac=1 / ref=4 / deblock=1:-2:-2 / analyse=0x3:0x133 / me=umh / subme=10 / psy=1 / psy_rd=1.00:0.25 / mixed_ref=1 / me_range=24 / chroma_me=1 / trellis=2 / 8x8dct=1 / cqm=0 / deadzone=6,6 / fast_pskip=1 / chroma_qp_offset=-4 / threads=2 / lookahead_threads=1 / sliced_threads=0 / nr=0 / decimate=0 / interlaced=0 / bluray_compat=0 / constrained_intra=0 / bframes=8 / b_pyramid=2 / b_adapt=2 / b_bias=0 / direct=1 / weightb=1 / open_gop=0 / weightp=2 / keyint=240 / keyint_min=23 / scenecut=40 / intra_refresh=0 / rc_lookahead=60 / rc=2pass / mbtree=1 / bitrate=2939 / ratetol=1.0 / qcomp=0.80 / qpmin=0 / qpmax=69 / qpstep=4 / cplxblur=20.0 / qblur=0.5 / vbv_maxrate=50000 / vbv_bufsize=62500 / nal_hrd=none / filler=0 / ip_ratio=1.10 / aq=1:0.50
Язык : Japanese
Default : Да
Forced : Нет
Цветовой диапазон : Limited
Основные цвета : BT.709
Характеристики трансфера : BT.709
Коэффициенты матрицы : BT.709
Аудио #1
Идентификатор : 2
Формат : AAC
Формат/Информация : Advanced Audio Codec
Профиль формата : LC
Идентификатор кодека : A_AAC-2
Продолжительность : 24 м. 15 с.
Битрейт : 192 Кбит/сек
Каналы : 2 канала
Расположение каналов : Front: L R
Частота : 48,0 КГц
Частота кадров : 46,875 кадров/сек (1024 SPF)
Метод сжатия : С потерями
Задержка видео : 21 мс.
Размер потока : 33,3 Мбайт (6%)
Заголовок : Persona99
Язык : Russian
Default : Да
Forced : Нет
Аудио #2
Идентификатор : 3
Формат : AAC
Формат/Информация : Advanced Audio Codec
Профиль формата : LC
Идентификатор кодека : A_AAC-2
Продолжительность : 24 м. 13 с.
Битрейт : 192 Кбит/сек
Каналы : 2 канала
Расположение каналов : Front: L R
Частота : 48,0 КГц
Частота кадров : 46,875 кадров/сек (1024 SPF)
Метод сжатия : С потерями
Задержка видео : 21 мс.
Размер потока : 33,3 Мбайт (6%)
Язык : Japanese
Default : Нет
Forced : Нет
Текст
Идентификатор : 4
Формат : ASS
Идентификатор кодека : S_TEXT/ASS
Идентификатор кодека/Информация : Advanced Sub Station Alpha
Продолжительность : 24 м. 10 с.
Битрейт : 176 бит/сек
ElementCount : 360
Метод сжатия : Без потерь
Размер потока : 31,3 Кбайт (0%)
Язык : Russian
Default : Нет
Forced : Нет



Вы не можете начинать темы
Вы не можете отвечать на сообщения
Вы не можете редактировать свои сообщения
Вы не можете удалять свои сообщения
Вы не можете голосовать в опросах
Вы не можете прикреплять файлы к сообщениям
Вы можете скачивать файлы