Грязная Парочка: Проект Эдем / Dirty Pair: Project Eden (Масимо Койти) [Movie] [1 из 1] [Без хардсаба] [RUS(int), JAP+SUB] [1987, фантастика, приключения, комедия, боевик, DVDRip] [HD720p]


Размер:  1.76 GB   |    Зарегистрирован:  3 месяца 27 дней   |    Скачан:  0 раз
Сидов:  3  [  0 KB/s  ]   Подробная статистика пиров
by lev99 ®
08-Дек-2017 09:10

[Цитировать]

Грязная Парочка: Проект Эдем / Dirty Pair: Project Eden (Масимо Койти) [Movie] [1 из 1] [Без хардсаба] [RUS(int), JAP+SUB] [1987, фантастика, приключения, комедия, боевик, DVDRip] [HD720p]

Грязная Парочка: Проект Эдем / Dirty Pair: Project Eden / Dirty Pair Project E.D.E.N. / Dirty Pair: Project Eden / Dirty Pair: The Movie
Страна: Япония
Студия: Sunrise
Год выпуска: 1987 г.
Жанр: фантастика, приключения, комедия, боевик
Режиссер: Масимо Койти
Тип: полнометражный фильм, 81 мин.
Описание: Две симпатяшки девушки Юри и Кей стали специалистами по неприятностям и работают ОООБ - Организация Обеспечения Общественного Благополучия. Они с непередаваемой грацией и напором расстреливают врагов всего доброго и хорошего. Просто приятно смотреть, как умирают всякие монстры и отъявленные бандиты. Юри и Кей постоянно получают задания, с которыми остальные бы не справились, и успешно их выполняют. Правда есть одно но, задания они выполняют. только какой ценой? После одного их заданий, в очень неприятной ситуации оказалась целая планета, т.е. жить там стало невозможно. Наверное, после каждого задания их шеф Гулей должен был седеть на всю голову. Поэтому он и обращается с ними немного грубовато. У Грязной парочки есть и свой зверек Муги - что-то похожее на белку, но размером с медведя. Муги очень умный зверь и постоянно помогает девушкам на их заданиях.
- world-art - | - kinopoisk -
Возраст: 14+
Рейтинг MPAA: PG-13
Доп. информация: Это апскейл с чисткой артефактов, что бы лучше выглядело на современных 16:9 экранах.
Видео взято у [Dual-Duality] 652х480(4:3)
Формат видео: MKV
Качество видео: DVDRip
Тип релиза: Без хардсаба
Видео: x264@L4.1, 1280x720 (16:9), 23.976 fps, 2718 kbps, 8 bit, 0.123 bit/pixel, 8 bit
Аудио: AC3 2ch 48,0 Hz 192 kbps Язык Русский (в составе контейнера) ; Озвучка: Одноголосная (жен.) Persona99 / GSGroup
Аудио 2: AC3 2ch 48,0 Hz 192 kbps Язык Японский ; Озвучка 2: Оригинальная
Субтитры: ASS, встроенные

MediaInfo

Общее
Уникальный идентификатор : 242379631216049201552344732061669149423 (0xB6589E749C9486D285221DE9DABA4AEF)
Полное имя : \Dirty Pair Project Eden [lev99]\[Dual-Duality] Dirty Pair Project Eden [8bit][720p][3E2AEDC4].mkv
Формат : Matroska
Версия формата : Version 4 / Version 2
Размер файла : 1,76 Гбайт
Продолжительность : 1 ч. 21 м.
Общий поток : 3104 Кбит/сек
Дата кодирования : UTC 2017-08-27 08:19:40
Программа кодирования : mkvmerge v15.0.0 ('Duel with the Devil') 64-bit
Библиотека кодирования : libebml v1.3.5 + libmatroska v1.4.5
Обложка : Yes
Attachments : cover.jpg
Видео
Идентификатор : 1
Формат : AVC
Формат/Информация : Advanced Video Codec
Профиль формата : High@L4.1
Настройки формата : CABAC / 9 Ref Frames
Параметр CABAC формата : Да
Параметр RefFrames формата : 9 кадров
Идентификатор кодека : V_MPEG4/ISO/AVC
Продолжительность : 1 ч. 21 м.
Битрейт : 2718 Кбит/сек
Ширина : 1280 пикселей
Высота : 720 пикселей
Соотношение сторон : 16:9
Режим частоты кадров : Постоянный
Частота кадров : 23,976 (24000/1001) кадра/сек
Цветовое пространство : YUV
Субдискретизация насыщенности : 4:2:0
Битовая глубина : 8 бит
Тип развёртки : Прогрессивная
Бит/(Пиксели*Кадры) : 0.123
Размер потока : 1,54 Гбайт (88%)
Библиотека кодирования : x264 core 152 r2851 ba24899
Настройки программы : cabac=1 / ref=9 / deblock=1:0:0 / analyse=0x3:0x113 / me=hex / subme=8 / psy=1 / psy_rd=1.00:0.00 / mixed_ref=1 / me_range=16 / chroma_me=1 / trellis=2 / 8x8dct=1 / cqm=0 / deadzone=21,11 / fast_pskip=1 / chroma_qp_offset=-2 / threads=18 / lookahead_threads=3 / sliced_threads=0 / nr=0 / decimate=1 / interlaced=0 / bluray_compat=0 / constrained_intra=0 / bframes=3 / b_pyramid=2 / b_adapt=1 / b_bias=0 / direct=3 / weightb=1 / open_gop=0 / weightp=2 / keyint=250 / keyint_min=23 / scenecut=40 / intra_refresh=0 / rc_lookahead=50 / rc=crf / mbtree=1 / crf=18.0 / qcomp=0.60 / qpmin=0 / qpmax=69 / qpstep=4 / ip_ratio=1.40 / aq=1:1.00
Default : Да
Forced : Нет
Аудио #1
Идентификатор : 2
Формат : AC-3
Формат/Информация : Audio Coding 3
Идентификатор кодека : A_AC3
Продолжительность : 1 ч. 21 м.
Вид битрейта : Постоянный
Битрейт : 192 Кбит/сек
Каналы : 2 канала
Расположение каналов : Front: L R
Частота : 48,0 КГц
Частота кадров : 31,250 кадров/сек (1536 SPF)
Битовая глубина : 16 бит
Метод сжатия : С потерями
Размер потока : 111 Мбайт (6%)
Заголовок : Persona99
Язык : Russian
ServiceKind/String : Complete Main
Default : Да
Forced : Нет
Аудио #2
Идентификатор : 3
Формат : AC-3
Формат/Информация : Audio Coding 3
Идентификатор кодека : A_AC3
Продолжительность : 1 ч. 21 м.
Вид битрейта : Постоянный
Битрейт : 192 Кбит/сек
Каналы : 2 канала
Расположение каналов : Front: L R
Частота : 48,0 КГц
Частота кадров : 31,250 кадров/сек (1536 SPF)
Битовая глубина : 16 бит
Метод сжатия : С потерями
Размер потока : 111 Мбайт (6%)
Заголовок : Japanese
Язык : Japanese
ServiceKind/String : Complete Main
Default : Нет
Forced : Нет
Текст
Идентификатор : 4
Формат : ASS
Идентификатор кодека : S_TEXT/ASS
Идентификатор кодека/Информация : Advanced Sub Station Alpha
Продолжительность : 1 ч. 20 м.
Битрейт : 84 бит/сек
ElementCount : 564
Метод сжатия : Без потерь
Размер потока : 50,2 Кбайт (0%)
Язык : Russian
Default : Нет
Forced : Нет
Меню
00:00:00.000 : :Chapter 01
00:06:35.367 : :Chapter 02
00:08:25.867 : :Chapter 03
00:14:45.701 : :Chapter 04
00:30:08.768 : :Chapter 05
00:47:12.835 : :Chapter 06
00:58:46.302 : :Chapter 07
01:17:36.836 : :Chapter 08
01:20:55.270 : :Chapter 09

Серия состоит из

#1 Грязная Парочка [ТВ] - ТВ (24 эп.), адаптация ранобэ, 1985
#2 Грязная Парочка: От Милых Ангелов с любовью - OVA (2 эп.), продолжение, 1987
#3 Грязная Парочка: Ноландское дело - OVA (1 эп.), продолжение, 1985
#4 Грязная Парочка OVA - OVA (10 эп.), продолжение, 1987
#5 Грязная Парочка: Проект Эдем - п/ф, продолжение, 1987
#6 Грязная Парочка: Заговор рейса 005 - OVA (1 эп.), продолжение, 1990
#7 Ослепительная Грязная Парочка - OVA (16 эп.), альтернативная вселенная, 1994

Скриншоты

Отличие

[Dual-Duality] 652х480(4:3)




Вы не можете начинать темы
Вы не можете отвечать на сообщения
Вы не можете редактировать свои сообщения
Вы не можете удалять свои сообщения
Вы не можете голосовать в опросах
Вы не можете прикреплять файлы к сообщениям
Вы можете скачивать файлы