Принцесса чудовищ / Princess Resurrection / Kaibutsu Oujo / Monster Princess (Сакой Масаюки) [TV+Special] [25+1 из 25+1] [без хардсаба] [RUS(int),JAP+SUB] [2007, приключения, фэнтези, DVDRip] [720p]


by lev99 ®
08-Дек-2017 11:12

[Цитировать]

Принцесса чудовищ / Princess Resurrection / Kaibutsu Oujo / Monster Princess (Сакой Масаюки) [TV+Special] [25+1 из 25+1] [без хардсаба] [RUS(int),JAP+SUB] [2007, приключения, фэнтези, DVDRip] [720p]

Принцесса чудовищ / Princess Resurrection / Kaibutsu Oujo / Monster Princess
Страна: Япония
Год выпуска: 2007 г.
Жанр: приключения, фэнтези
Режиссер: Кавагути Кэйитиро
Тип: ТВ (25 эп. + спэшл), 25 мин.
Описание: Хиро приехал к сестре, устроившейся горничной в богатый дом, но не найдя её стал бродить по улицам. Пытаясь спасти девушку от сорвавшегося с крана груза, Хиро погибает... Однако спасённая оказывается принцессой монстров,скрывающейся в мире людей от подосланных чудовищ-убийц, она оживляет парня и теперь, он её бессмертный но бестолковый слуга...
- world-art - | - kinopoisk -
Возраст: 14+
Рейтинг MPAA: PG-13
Доп. информация: Это апскейл с чисткой артефактов, что бы лучше выглядело на современных 16:9 экранах.
Формат видео: MKV
Качество видео: DVDRip
Тип релиза: Без хардсаба
Видео: x264@L4.1, 1280x720 (16:9), 23.976 fps, ~1245 kbps, 0.056 bit/pixe, 8 bit
Аудио: AAC, 2 канала, 48 KHz, 192 kbps Язык Русский (в составе контейнера) ; Озвучка: Одноголосная (жен.) Persona99 / GSGroup
Аудио 2: AAC, 2 канала, 48 KHz, 192 kbps Язык Японский ; Озвучка 2: Оригинальная
Субтитры: ASS, Язык Русский (в составе контейнера) ;

MediaInfo

Общее
Уникальный идентификатор : 182588258340600562041955792304928277402 (0x895D382C1DE06FF49E52FB741091439A)
Полное имя : \Kaibutsu Oujo [lev99] 720p\01 Kaibutsu Oujo [Persona99].mkv
Формат : Matroska
Версия формата : Version 4 / Version 2
Размер файла : 283 Мбайт
Продолжительность : 24 м. 13 с.
Общий поток : 1633 Кбит/сек
Название фильма : 01 Kaibutsu Oujo
Дата кодирования : UTC 2017-10-25 22:37:42
Программа кодирования : mkvmerge v17.0.0 ('Be Ur Friend') 64-bit
Библиотека кодирования : libebml v1.3.5 + libmatroska v1.4.8
Обложка : Yes
Attachments : cover.jpg / Modernist One.ttf
Видео
Идентификатор : 1
Формат : AVC
Формат/Информация : Advanced Video Codec
Профиль формата : High@L4.1
Настройки формата : CABAC / 9 Ref Frames
Параметр CABAC формата : Да
Параметр RefFrames формата : 9 кадров
Идентификатор кодека : V_MPEG4/ISO/AVC
Продолжительность : 24 м. 13 с.
Битрейт : 1245 Кбит/сек
Ширина : 1280 пикселей
Высота : 720 пикселей
Соотношение сторон : 16:9
Режим частоты кадров : Постоянный
Частота кадров : 23,976 (24000/1001) кадра/сек
Цветовое пространство : YUV
Субдискретизация насыщенности : 4:2:0
Битовая глубина : 8 бит
Тип развёртки : Прогрессивная
Бит/(Пиксели*Кадры) : 0.056
Размер потока : 216 Мбайт (76%)
Библиотека кодирования : x264 core 148 r2744 b97ae06
Настройки программы : cabac=1 / ref=9 / deblock=1:-1:-1 / analyse=0x3:0x133 / me=umh / subme=10 / psy=1 / psy_rd=0.40:0.00 / mixed_ref=1 / me_range=24 / chroma_me=1 / trellis=2 / 8x8dct=1 / cqm=0 / deadzone=21,11 / fast_pskip=1 / chroma_qp_offset=-2 / threads=2 / lookahead_threads=1 / sliced_threads=0 / nr=0 / decimate=1 / interlaced=0 / bluray_compat=0 / constrained_intra=0 / bframes=3 / b_pyramid=2 / b_adapt=2 / b_bias=0 / direct=1 / weightb=1 / open_gop=0 / weightp=2 / keyint=240 / keyint_min=23 / scenecut=40 / intra_refresh=0 / rc_lookahead=60 / rc=crf / mbtree=1 / crf=18.0 / qcomp=0.60 / qpmin=10 / qpmax=69 / qpstep=4 / vbv_maxrate=62500 / vbv_bufsize=50000 / crf_max=0.0 / nal_hrd=none / filler=0 / ip_ratio=1.40 / aq=1:0.60
Язык : Japanese
Default : Да
Forced : Нет
Цветовой диапазон : Limited
Основные цвета : BT.709
Характеристики трансфера : BT.709
Коэффициенты матрицы : BT.709
Аудио #1
Идентификатор : 2
Формат : AAC
Формат/Информация : Advanced Audio Codec
Профиль формата : LC
Идентификатор кодека : A_AAC-2
Продолжительность : 24 м. 11 с.
Битрейт : 192 Кбит/сек
Каналы : 2 канала
Расположение каналов : Front: L R
Частота : 48,0 КГц
Частота кадров : 46,875 кадров/сек (1024 SPF)
Метод сжатия : С потерями
Задержка видео : 21 мс.
Размер потока : 33,2 Мбайт (12%)
Заголовок : Persona99
Язык : Russian
Default : Да
Forced : Нет
Аудио #2
Идентификатор : 3
Формат : AAC
Формат/Информация : Advanced Audio Codec
Профиль формата : LC
Идентификатор кодека : A_AAC-2
Продолжительность : 24 м. 13 с.
Битрейт : 192 Кбит/сек
Каналы : 2 канала
Расположение каналов : Front: L R
Частота : 48,0 КГц
Частота кадров : 46,875 кадров/сек (1024 SPF)
Метод сжатия : С потерями
Задержка видео : 21 мс.
Размер потока : 33,3 Мбайт (12%)
Язык : Japanese
Default : Нет
Forced : Нет
Текст
Идентификатор : 4
Формат : ASS
Идентификатор кодека : S_TEXT/ASS
Идентификатор кодека/Информация : Advanced Sub Station Alpha
Продолжительность : 22 м. 2 с.
Битрейт : 92 бит/сек
ElementCount : 182
Метод сжатия : Без потерь
Размер потока : 15,0 Кбайт (0%)
Язык : Russian
Default : Нет
Forced : Нет
Меню
00:00:00.000 : :Opening / :Part A / :Ending
00:01:16.159 : :Part B
00:10:33.967 : :Part C
00:20:40.448 : :Preview

Эпизоды

01. Revival Princess
02. Destruction Princess
03. Roaring Princess
04. Negotiating Princess
05. Blood Princess
06. Allied Princess
07. Princess Lightning
08. Princess Secret Room
09. Princess Monochrome
10. Princess Recollections
11. Princess Cat-Tongue
12. Princess Consumption
13. Princess Sacrifice
14. Princess Running
15. Princess Visiting
16. Princess Succession
17. Aging Princess
18. Hunter Princess
19.Princess Ocean
20.Princess Connection
21.Princess Banishment
22.Princess Carnage
23.Princess Zombie
24.Princess Duel
25.Princess Delinquent
26.DVD-спэшл:
Sleeping Princess

Скриншоты

Скачать

Скачать бесплатно и на максимальной скорости!

Как скачивать? · Что такое торрент? · Рейтинг и ограничения




Вы не можете начинать темы
Вы не можете отвечать на сообщения
Вы не можете редактировать свои сообщения
Вы не можете удалять свои сообщения
Вы не можете голосовать в опросах
Вы не можете прикреплять файлы к сообщениям
Вы не можете скачивать файлы