Тёмный дворецкий [ТВ-2] / Black Butler II (Огура Хирофуми) [TV] [12+6 из 12+6] [Без хардсаба] [RUS(int), JAP+SUB] [2010, комедия, мистика, BDRip] [720p]


by lev99 ®
30-Янв-2018 16:35

[Цитировать]

Тёмный дворецкий [ТВ-2] / Black Butler II (Огура Хирофуми) [TV] [12+6 из 12+6] [Без хардсаба] [RUS(int), JAP+SUB] [2010, комедия, мистика, BDRip] [720p]

Тёмный дворецкий [ТВ-2] / Black Butler II
Страна: Япония
Год выпуска: 2010 г.
Жанр: комедия, мистика
Тип: TV
Эпизоды: 12+6 из 12+6
Продолжительность: 12 эп. по 25 мин
Режиссер: Огура Хирофуми
Студия: A-1 Pictures Inc.
Описание: Что надо сделать для развития удачной идеи? Повторить и удвоить! Именно так поступили авторы продолжения, введя в сюжет вторую пару хозяин-слуга: слегка сумасшедшего, но обаятельного юного герцога Алоиса Транси и мрачноватого, но компетентного дворецкого Клода Фаустуса. По сути, новые герои являются зеркальным отражением полюбившихся зрителям Сиэля и Себастиана, которые решили пока не покидать сериал.
Во втором сезоне «Дворецкого» мы сможем снова побывать в старой доброй псевдовикторианской Англии и встретить прежних знакомых, а также решить новые сюжетные загадки, щедро разбросанные авторами. Каково истинное прошлое Алоиса, и в чем суть его договора с Клодом? Что связывает обе пары главных героев? И где, наконец, душа Сиэля? Неужели их с Себастианом договор не прошел небесный арбитраж? © Hollow, World Art
- world-art - | - kinopoisk -
Доп. информация: Видео взята [RUELL-Next]
Возраст: 18+
Рейтинг MPAA: NC-17
Качество: BDRip
Тип релиза: Без хардсаба
Формат видео: MKV
Автор рипа: lev99
Видео: x264@L4.1, 1280x720(16:9), 23.976 fps, ~2149 Kbps, 0.097 bit/pixel, 8 bits
Аудио: AAC, 48,0 Hz, 192 Kbps, 2ch Язык Русский (в составе контейнера) ; Озвучка: Одноголосная (жен.) Persona99 / GSGroup [1-12 эп.]
Аудио: AC3, 48,0 Hz, 192 Kbps, 2ch Язык Русский (в составе контейнера) ; двухголосая (муж+жен) NIKITOS & Viki [S1-6 эп.]
Аудио 2: AAC, 48,0 Hz, 192 Kbps, 2ch Язык Японский ; Озвучка 2: Оригинальная [1-12 эп.]
Аудио 2: AC3, 48,0 Hz, 192 Kbps, 2ch Язык Японский ; Озвучка 2: Оригинальная [S1-6 эп.]
Субтитры: ASS, внешние Язык субтитров: русский; Перевод: Sora_P3_Heaven & Stan WarHammer & tina

Скриншоты

Список эпизодов

01. Темный Дворецкий
02. Одинокий Дворецкий
03. Испорченный Дворецкий
04. Опасный Дворецкий
05. Ведущий Дворецкий
06. Поздний Дворецкий
07. Убивающий Дворецкий
08. Сознавшийся Дворецкий
09. Лживый Дворецкий
10. Начинающий Дворецкий
11. Выбирающий Дворецкий
12. Тёмный Дворецкий

S1. Сиэль в Стране Чудес (ч.1)
S2. Добро пожаловать в ФэнтомХайв
S3. Как создавался Темный дворецкий
S4. Сиэль в Стране Чудес (ч.2)
S5. История жнеца по имени Уилл
S6. Паучий замысел

- одноголосая (жен.) от Persona99 (GetSmart) [1-12]
- двухголосая (муж+жен) NIKITOS & Viki [S1-6]

Серия состоит из

#1 Темный дворецкий [ТВ-1] - ТВ (24 эп. + спэшл), адаптация манги, 2008
#2 Темный дворецкий [ТВ-2] - ТВ (12 эп. + 6 спэшлов), продолжение, 2010
#3 Темный дворецкий [ТВ-3] - ТВ (10 эп.), адаптация манги, 2014
#4 Темный дворецкий OVA - OVA (2 эп.), продолжение, 2014

MediaInfo

Общее
Уникальный идентификатор : 63101953444294919670543856766490297317 (0x2F78FE81D83081935AF5A5CECD70C3E5)
Полное имя : \Kuroshitsuji II [lev99] [BD] [720p]\[RUELL-Next] Kuroshitsuji II - 01 (BDrip 1280x720 H.264 AAC).mkv
Формат : Matroska
Версия формата : Version 4 / Version 2
Размер файла : 444 Мбайт
Продолжительность : 24 м. 31 с.
Общий поток : 2533 Кбит/сек
Дата кодирования : UTC 2018-01-30 12:21:40
Программа кодирования : mkvmerge v20.0.0 ('I Am The Sun') 64-bit
Библиотека кодирования : libebml v1.3.5 + libmatroska v1.4.8
Видео
Идентификатор : 1
Формат : AVC
Формат/Информация : Advanced Video Codec
Профиль формата : High@L4.1
Настройки формата : CABAC / 9 Ref Frames
Параметр CABAC формата : Да
Параметр RefFrames формата : 9 кадров
Идентификатор кодека : V_MPEG4/ISO/AVC
Продолжительность : 24 м. 29 с.
Битрейт : 2149 Кбит/сек
Ширина : 1280 пикселей
Высота : 720 пикселей
Соотношение сторон : 16:9
Режим частоты кадров : Постоянный
Частота кадров : 23,976 (24000/1001) кадра/сек
Цветовое пространство : YUV
Субдискретизация насыщенности : 4:2:0
Битовая глубина : 8 бит
Тип развёртки : Прогрессивная
Бит/(Пиксели*Кадры) : 0.097
Размер потока : 376 Мбайт (85%)
Библиотека кодирования : x264 core 125 r2200 999b753
Настройки программы : cabac=1 / ref=9 / deblock=1:-2:-2 / analyse=0x3:0x133 / me=umh / subme=11 / psy=1 / psy_rd=0.40:0.00 / mixed_ref=1 / me_range=32 / chroma_me=1 / trellis=2 / 8x8dct=1 / cqm=0 / deadzone=21,11 / fast_pskip=1 / chroma_qp_offset=-2 / threads=3 / lookahead_threads=1 / sliced_threads=0 / nr=0 / decimate=1 / interlaced=0 / bluray_compat=0 / constrained_intra=0 / bframes=5 / b_pyramid=2 / b_adapt=2 / b_bias=0 / direct=0 / weightb=1 / open_gop=0 / weightp=2 / keyint=240 / keyint_min=23 / scenecut=40 / intra_refresh=0 / rc_lookahead=40 / rc=2pass / mbtree=1 / bitrate=2149 / ratetol=1.0 / qcomp=0.60 / qpmin=0 / qpmax=69 / qpstep=4 / cplxblur=20.0 / qblur=0.5 / ip_ratio=1.40 / aq=1:0.60
Язык : English
Default : Нет
Forced : Нет
Аудио #1
Идентификатор : 2
Формат : AAC
Формат/Информация : Advanced Audio Codec
Профиль формата : LC
Идентификатор кодека : A_AAC-2
Продолжительность : 24 м. 31 с.
Битрейт : 192 Кбит/сек
Каналы : 2 канала
Расположение каналов : Front: L R
Частота : 48,0 КГц
Частота кадров : 46,875 кадров/сек (1024 SPF)
Метод сжатия : С потерями
Размер потока : 33,7 Мбайт (8%)
Заголовок : Persona99
Язык : Russian
Default : Да
Forced : Нет
Аудио #2
Идентификатор : 3
Формат : AAC
Формат/Информация : Advanced Audio Codec
Профиль формата : LC
Идентификатор кодека : A_AAC-2
Продолжительность : 24 м. 29 с.
Битрейт : 192 Кбит/сек
Каналы : 2 канала
Расположение каналов : Front: L R
Частота : 48,0 КГц
Частота кадров : 46,875 кадров/сек (1024 SPF)
Метод сжатия : С потерями
Задержка видео : 21 мс.
Размер потока : 33,6 Мбайт (8%)
Язык : Japanese
Default : Нет
Forced : Нет
Текст
Идентификатор : 4
Формат : ASS
Идентификатор кодека : S_TEXT/ASS
Идентификатор кодека/Информация : Advanced Sub Station Alpha
Продолжительность : 24 м. 25 с.
Битрейт : 132 бит/сек
ElementCount : 284
Метод сжатия : Без потерь
Размер потока : 23,8 Кбайт (0%)
Язык : Russian
Default : Нет
Forced : Нет
Скачать

Скачать бесплатно и на максимальной скорости!

Как скачивать? · Что такое торрент? · Рейтинг и ограничения




Вы не можете начинать темы
Вы не можете отвечать на сообщения
Вы не можете редактировать свои сообщения
Вы не можете удалять свои сообщения
Вы не можете голосовать в опросах
Вы не можете прикреплять файлы к сообщениям
Вы не можете скачивать файлы