Базука Ханаппэ / Hanappe Bazooka (Икэгами Такамаса) [OVA] [1 из 1] [Без хардсаба] [RUS(int), JAP, SUB] [1992, комедия, фэнтези, эротика, DVDRip] [720p]


by lev99 ®
07-Дек-2017 12:35

[Цитировать]

Базука Ханаппэ / Hanappe Bazooka (Икэгами Такамаса) [OVA] [1 из 1] [Без хардсаба] [RUS(int), JAP, SUB] [1992, комедия, фэнтези, эротика, DVDRip] [720p]

Базука Ханаппэ / Hanappe Bazooka
Страна: Япония
Год выпуска: 1992 г.
Жанр: комедия, фэнтези, эротика
Тип: OVA (1 эп.), 45 мин.
Режиссер: Икэгами Такамаса
Перевод: fynnley [RG Lucky clover], Кондрашка [RG Lucky clover]
Описание: Старшеклассник Ханаппэ – слабак и неудачник. Его не любят девушки, колотят хулиганы, не замечают родители и высмеивает старшая сестра. Но в один прекрасный вечер, когда измученный жизнью Ханаппэ запирается у себя с порнокассетой и фотографией школьной активистки, ему вдруг являются демоны – монстр Базука и злая нэка Мефисто Дэнс. Они обещают школьнику неслыханную силу и возможность управлять всем миром. Звучит заманчиво, но сделки с демонами всегда влекут за собой непредвиденные последствия...
- world-art - | - kinopoisk -
Возраст: 18+
Рейтинг MPAA: NC-17
Доп. информация: Это апскейл с чисткой артефактов, что бы лучше выглядело на современных 16:9 экранах.
Формат видео: MKV
Качество видео: DVDRip
Тип релиза: Без хардсаба
Видео: x264@L4.1, 1280x720 (16:9), 23.970 fps, 2346 kbps, 0.106 bit/pixel, 8 bit
Аудио: AC-3, 192 kbps, 48,0 Hz, 2 ch Язык Русский (в составе контейнера) ; Озвучка: Одноголосная (жен.) Persona99 / GSGroup
Аудио 2: AC-3, 192 kbps, 48,0 Hz, 2 ch Язык Японский ; Озвучка 2: Оригинальная
Субтитры: ASS (встроенные) Язык субтитров русский ; Перевод: fynnley [RG Lucky clover], Кондрашка [RG Lucky clover]

MediaInfo

Общее
Уникальный идентификатор : 204465781098228722036517765401833840184 (0x99D2AD529F361A1789C7CEB8A29B1E38)
Полное имя : \Hanappe Bazooka [lev99] [DVDRip] [720]\Hanappe_Bazooka_[Persona99][720p].mkv
Формат : Matroska
Версия формата : Version 4 / Version 2
Размер файла : 890 Мбайт
Продолжительность : 45 м. 33 с.
Общий поток : 2732 Кбит/сек
Дата кодирования : UTC 2017-08-17 14:45:25
Программа кодирования : mkvmerge v14.0.0 ('Flow') 64bit
Библиотека кодирования : libebml v1.3.4 + libmatroska v1.4.5
Обложка : Yes
Attachments : cover.jpg / ZANOZA_.PFB
Видео
Идентификатор : 1
Формат : AVC
Формат/Информация : Advanced Video Codec
Профиль формата : High@L4.1
Настройки формата : CABAC / 9 Ref Frames
Параметр CABAC формата : Да
Параметр RefFrames формата : 9 кадров
Идентификатор кодека : V_MPEG4/ISO/AVC
Продолжительность : 45 м. 33 с.
Битрейт : 2346 Кбит/сек
Ширина : 1280 пикселей
Высота : 720 пикселей
Соотношение сторон : 16:9
Режим частоты кадров : Постоянный
Частота кадров : 23,976 (24000/1001) кадра/сек
Цветовое пространство : YUV
Субдискретизация насыщенности : 4:2:0
Битовая глубина : 8 бит
Тип развёртки : Прогрессивная
Бит/(Пиксели*Кадры) : 0.106
Размер потока : 764 Мбайт (86%)
Библиотека кодирования : x264 core 146 r2538 121396c
Настройки программы : cabac=1 / ref=9 / deblock=1:0:0 / analyse=0x3:0x113 / me=umh / subme=8 / psy=1 / psy_rd=1.00:0.00 / mixed_ref=1 / me_range=16 / chroma_me=1 / trellis=1 / 8x8dct=1 / cqm=0 / deadzone=21,11 / fast_pskip=1 / chroma_qp_offset=-2 / threads=12 / lookahead_threads=2 / sliced_threads=0 / nr=0 / decimate=1 / interlaced=0 / bluray_compat=0 / constrained_intra=0 / bframes=3 / b_pyramid=2 / b_adapt=2 / b_bias=0 / direct=3 / weightb=1 / open_gop=0 / weightp=2 / keyint=250 / keyint_min=23 / scenecut=40 / intra_refresh=0 / rc_lookahead=50 / rc=crf / mbtree=1 / crf=18.0 / qcomp=0.60 / qpmin=0 / qpmax=69 / qpstep=4 / ip_ratio=1.40 / aq=1:1.00
Default : Да
Forced : Нет
Аудио #1
Идентификатор : 2
Формат : AC-3
Формат/Информация : Audio Coding 3
Идентификатор кодека : A_AC3
Продолжительность : 45 м. 33 с.
Вид битрейта : Постоянный
Битрейт : 192 Кбит/сек
Каналы : 2 канала
Расположение каналов : Front: L R
Частота : 48,0 КГц
Частота кадров : 31,250 кадров/сек (1536 SPF)
Битовая глубина : 16 бит
Метод сжатия : С потерями
Размер потока : 62,6 Мбайт (7%)
Заголовок : Persona99
Язык : Russian
ServiceKind/String : Complete Main
Default : Да
Forced : Нет
Аудио #2
Идентификатор : 3
Формат : AC-3
Формат/Информация : Audio Coding 3
Идентификатор кодека : A_AC3
Продолжительность : 45 м. 33 с.
Вид битрейта : Постоянный
Битрейт : 192 Кбит/сек
Каналы : 2 канала
Расположение каналов : Front: L R
Частота : 48,0 КГц
Частота кадров : 31,250 кадров/сек (1536 SPF)
Битовая глубина : 16 бит
Метод сжатия : С потерями
Размер потока : 62,6 Мбайт (7%)
Заголовок : Japanese
Язык : Japanese
ServiceKind/String : Complete Main
Default : Нет
Forced : Нет
Текст
Идентификатор : 4
Формат : ASS
Идентификатор кодека : S_TEXT/ASS
Идентификатор кодека/Информация : Advanced Sub Station Alpha
Продолжительность : 42 м. 28 с.
Битрейт : 120 бит/сек
ElementCount : 490
Метод сжатия : Без потерь
Размер потока : 37,6 Кбайт (0%)
Язык : Russian
Default : Нет
Forced : Нет

Скриншоты

Скачать

Скачать бесплатно и на максимальной скорости!

Как скачивать? · Что такое торрент? · Рейтинг и ограничения




Вы не можете начинать темы
Вы не можете отвечать на сообщения
Вы не можете редактировать свои сообщения
Вы не можете удалять свои сообщения
Вы не можете голосовать в опросах
Вы не можете прикреплять файлы к сообщениям
Вы не можете скачивать файлы