Триплексоголик OVA-2 / xxxHOLiC Rou (Мидзусима Цутому) [OVA] [02 из 02] [RUS(int), JAP+SUB] [2010, мистика, сэйнэн, BDRip] [720p]


by lev99 ®
08-Янв-2018 16:10

[Цитировать]

Триплексоголик OVA-2 / xxxHOLiC Rou (Мидзусима Цутому) [OVA] [02 из 02] [RUS(int), JAP+SUB] [2010, мистика, сэйнэн, BDRip] [720p]

Триплексоголик OVA-2 / xxxHOLiC Rou & xxxHOLiC Rou Adayume
Страна: Япония
Год выпуска: 2010
Жанр: мистика, сэйнэн
Режиссер: Мидзусима Цутому
Продолжительность: OVA (1 эп.), 42 мин.
Описание: Действие этого аниме происходит спустя 10 после того, как исчезла Юки, оставив магазин на Ватануки, который продолжает работу своей учительницы. Домеки, ставший уже преподавателем в университете, приходит в магазин и рассказывает о странной истории, произошедшей с ним и Кохане - учащейся в его университете - в старом доме, хозяйка которого недавно умерла, а наследники распродают имущество.
Формат видео: MKV
Качество видео: BDRip
Тип релиза: Без хардсаба
Видео: x264@L3.1, 1280x720 (16:9), 23.976 fps, ~1227 Kbps, 0.056 bit/pixel, 8 bit
Аудио: AC-3, 192 Kbps, 48.0Hz, 2 ch Язык Русский (в составе контейнера) ; Озвучка: Одноголосная (жен.) Persona99 / GSGroup
Аудио 2: AC-3, 192 Kbps, 48.0Hz, 2 ch Язык Японский ; Озвучка 2: Оригинальная
Cубтитры: ASS, встроенные; Язык субтитров русский

Список эпизодов

01. xxxHOLiC Rou - 2010
02. xxxHOLiC Rou Adayume - 2011

Серия состоит из

#1 Триплексоголик (первый сезон) - ТВ (24 эп.), адаптация манги, 2006
#2 Триплексоголик (фильм) - п/ф, spinoff (ответвление сюжета), 2005
#3 Триплексоголик (второй сезон) - ТВ (13 эп.), продолжение, 2008
#4 Триплексоголик OVA-1 - OVA (2 эп.), продолжение, 2009
#5 Триплексоголик OVA-2 - OVA (1 эп.), продолжение, 2010 - 2011
#6 Триплексоголик OVA-3 - OVA (1 эп.), продолжение, 2011

Скриншоты

MediaInfo

Общее
Уникальный идентификатор : 253445594375138382534963949887997290047 (0xBEABD8900C7D2711B01CD95D5EB3263F)
Полное имя : D:\downloads\[lev99] xxxHOLiC Rou & Rou Adayume [BDRip 720p]\[lev99] xxxHOLiC Rou - 01 [BDRip 1280x720 x264 AC3].mkv
Формат : Matroska
Версия формата : Version 4 / Version 2
Размер файла : 474 Мбайт
Продолжительность : 41 м. 4 с.
Общий поток : 1614 Кбит/сек
Дата кодирования : UTC 2017-08-09 14:33:10
Программа кодирования : mkvmerge v14.0.0 ('Flow') 64bit
Библиотека кодирования : libebml v1.3.4 + libmatroska v1.4.5
Обложка : Yes
Attachments : cover.png
Видео
Идентификатор : 1
Формат : AVC
Формат/Информация : Advanced Video Codec
Профиль формата : High@L3.1
Настройки формата : 3 Ref Frames
Параметр CABAC формата : Нет
Параметр RefFrames формата : 3 кадра
Идентификатор кодека : V_MPEG4/ISO/AVC
Продолжительность : 41 м. 4 с.
Битрейт : 1227 Кбит/сек
Ширина : 1280 пикселей
Высота : 720 пикселей
Соотношение сторон : 16:9
Режим частоты кадров : Постоянный
Частота кадров : 23,976 (24000/1001) кадра/сек
Цветовое пространство : YUV
Субдискретизация насыщенности : 4:2:0
Битовая глубина : 8 бит
Тип развёртки : Прогрессивная
Бит/(Пиксели*Кадры) : 0.056
Размер потока : 360 Мбайт (76%)
Библиотека кодирования : x264 core 146 r2538 121396c
Настройки программы : cabac=0 / ref=3 / deblock=1:0:0 / analyse=0x3:0x113 / me=umh / subme=8 / psy=1 / psy_rd=1.00:0.00 / mixed_ref=1 / me_range=16 / chroma_me=1 / trellis=1 / 8x8dct=1 / cqm=0 / deadzone=21,11 / fast_pskip=1 / chroma_qp_offset=-2 / threads=12 / lookahead_threads=2 / sliced_threads=0 / nr=0 / decimate=1 / interlaced=0 / bluray_compat=0 / constrained_intra=0 / bframes=3 / b_pyramid=0 / b_adapt=2 / b_bias=0 / direct=3 / weightb=0 / open_gop=0 / weightp=0 / keyint=250 / keyint_min=23 / scenecut=40 / intra_refresh=0 / rc_lookahead=50 / rc=crf / mbtree=1 / crf=18.0 / qcomp=0.60 / qpmin=0 / qpmax=69 / qpstep=4 / vbv_maxrate=9500 / vbv_bufsize=9500 / crf_max=0.0 / nal_hrd=none / filler=0 / ip_ratio=1.40 / aq=1:1.00
Язык : Japanese
Default : Да
Forced : Нет
Аудио #1
Идентификатор : 2
Формат : AC-3
Формат/Информация : Audio Coding 3
Идентификатор кодека : A_AC3
Продолжительность : 41 м. 4 с.
Вид битрейта : Постоянный
Битрейт : 192 Кбит/сек
Каналы : 2 канала
Расположение каналов : Front: L R
Частота : 48,0 КГц
Частота кадров : 31,250 кадров/сек (1536 SPF)
Битовая глубина : 16 бит
Метод сжатия : С потерями
Размер потока : 56,4 Мбайт (12%)
Заголовок : Persona99
Язык : Russian
ServiceKind/String : Complete Main
Default : Да
Forced : Нет
Аудио #2
Идентификатор : 3
Формат : AC-3
Формат/Информация : Audio Coding 3
Идентификатор кодека : A_AC3
Продолжительность : 41 м. 4 с.
Вид битрейта : Постоянный
Битрейт : 192 Кбит/сек
Каналы : 2 канала
Расположение каналов : Front: L R
Частота : 48,0 КГц
Частота кадров : 31,250 кадров/сек (1536 SPF)
Битовая глубина : 16 бит
Метод сжатия : С потерями
Размер потока : 56,4 Мбайт (12%)
Заголовок : Japanese
Язык : Japanese
ServiceKind/String : Complete Main
Default : Нет
Forced : Нет
Текст
Идентификатор : 4
Формат : ASS
Идентификатор кодека : S_TEXT/ASS
Идентификатор кодека/Информация : Advanced Sub Station Alpha
Продолжительность : 40 м. 22 с.
Битрейт : 151 бит/сек
ElementCount : 611
Метод сжатия : Без потерь
Размер потока : 44,9 Кбайт (0%)
Язык : Russian
Default : Нет
Forced : Нет
Скачать

Скачать бесплатно и на максимальной скорости!

Как скачивать? · Что такое торрент? · Рейтинг и ограничения




Вы не можете начинать темы
Вы не можете отвечать на сообщения
Вы не можете редактировать свои сообщения
Вы не можете удалять свои сообщения
Вы не можете голосовать в опросах
Вы не можете прикреплять файлы к сообщениям
Вы не можете скачивать файлы