Триплексоголик OVA-1 / xxxHOLiC: Shunmuki (Мидзусима Цутому) [OVA] [02 из 02] [RUS(int), JAP+SUB] [2009, комедия, мистика, сэйнэн, BDRip] [720p]


Размер:  688 MB   |    Зарегистрирован:  4 месяца 29 дней   |    Скачан:  0 раз

Полного источника не было: 9 часов

by lev99 ®
08-Янв-2018 11:47

[Цитировать]

Триплексоголик OVA-1 / xxxHOLiC: Shunmuki (Мидзусима Цутому) [OVA] [02 из 02] [RUS(int), JAP+SUB] [2009, комедия, мистика, сэйнэн, BDRip] [720p]

Триплексоголик OVA-1 / xxxHOLiC: Shunmuki
Страна: Япония
Год выпуска: 2009 г.
Жанр: комедия, мистика, сэйнэн
Режиссер: Мидзусима Цутому
Продолжительность: OVA (2 эп.), 30 мин.
Описание: Чтобы измениться, человеку достаточно всего одной встречи.
Герои, знакомые нам по двум сезонам "Триплексоголика", начинают меняться. Кто-то взрослеет, кто-то пересматривает своё отношение к дружбе. Нет-нет, не пугайтесь - есть вещи, которые никогда не изменятся: Юко всё так же много пьёт, а Ватануки вопит не меньше обычного. OVA наконец-то порадует любителей манги и "Хроники крыльев": пересечения между сюжетами, которые старательно вырезались в сериалах, теперь не замалчиваются - ведь граница между мирами становится всё тоньше.
Первый эпизод OVA прилагался как бонус к ограниченному эксклюзивному изданию четырнадцатого тома манги.
- world-art - | - kinopoisk -
Возраст: 14+
Рейтинг MPAA: PG-13
Формат видео: MKV
Качество видео: BDRip
Тип релиза: Без хардсаба
Видео: x264@L3.1, 1280x720(16:9), 23.976 fps, ~1376 Kbps, 0.062 bit/pixel, 8 bit
Аудио: AC-3, 192 Kbps, 48.0Hz, 2 ch Язык Русский (в составе контейнера) ; Озвучка: Одноголосная (жен.) Persona99 / GSGroup
Аудио 2: AC-3, 192 Kbps, 48.0Hz, 2 ch Язык Японский ; Озвучка 2: Оригинальная
Cубтитры: ASS, встроенные (надписи и полный); Язык субтитров русский

Список эпизодов

01. Zenpen
02. Kouhen

Серия состоит из

#1 Триплексоголик (первый сезон) - ТВ (24 эп.), адаптация манги, 2006
#2 Триплексоголик (фильм) - п/ф, spinoff (ответвление сюжета), 2005
#3 Триплексоголик (второй сезон) - ТВ (13 эп.), продолжение, 2008
#4 Триплексоголик OVA-1 - OVA (2 эп.), продолжение, 2009
#5 Триплексоголик OVA-2 - OVA (1 эп.), продолжение, 2010 - 2011
#6 Триплексоголик OVA-3 - OVA (1 эп.), продолжение, 2011

Скриншоты

MediaInfo

Общее
Уникальный идентификатор : 240123695595147196801080444797912438303 (0xB4A6243DF48A9C8DA839FD7FB0FD561F)
Полное имя : D:\downloads\[lev99] xxxHOLiC Shunmuki 2009 [BDRip 720p]\[lev99] 01 xxxHOLiC Shunmuki - Zenpen [BDRip 1280x720 x264 AC3].mkv
Формат : Matroska
Версия формата : Version 4 / Version 2
Размер файла : 337 Мбайт
Продолжительность : 26 м. 45 с.
Общий поток : 1763 Кбит/сек
Дата кодирования : UTC 2017-08-10 13:22:45
Программа кодирования : mkvmerge v14.0.0 ('Flow') 64bit
Библиотека кодирования : libebml v1.3.4 + libmatroska v1.4.5
Обложка : Yes
Attachments : cover.jpg
Видео
Идентификатор : 1
Формат : AVC
Формат/Информация : Advanced Video Codec
Профиль формата : High@L3.1
Настройки формата : 3 Ref Frames
Параметр CABAC формата : Нет
Параметр RefFrames формата : 3 кадра
Идентификатор кодека : V_MPEG4/ISO/AVC
Продолжительность : 26 м. 45 с.
Битрейт : 1376 Кбит/сек
Ширина : 1280 пикселей
Высота : 720 пикселей
Соотношение сторон : 16:9
Режим частоты кадров : Постоянный
Частота кадров : 23,976 (24000/1001) кадра/сек
Цветовое пространство : YUV
Субдискретизация насыщенности : 4:2:0
Битовая глубина : 8 бит
Тип развёртки : Прогрессивная
Бит/(Пиксели*Кадры) : 0.062
Размер потока : 263 Мбайт (78%)
Библиотека кодирования : x264 core 146 r2538 121396c
Настройки программы : cabac=0 / ref=3 / deblock=1:0:0 / analyse=0x3:0x113 / me=umh / subme=8 / psy=1 / psy_rd=1.00:0.00 / mixed_ref=1 / me_range=16 / chroma_me=1 / trellis=1 / 8x8dct=1 / cqm=0 / deadzone=21,11 / fast_pskip=1 / chroma_qp_offset=-2 / threads=12 / lookahead_threads=2 / sliced_threads=0 / nr=0 / decimate=1 / interlaced=0 / bluray_compat=0 / constrained_intra=0 / bframes=3 / b_pyramid=0 / b_adapt=2 / b_bias=0 / direct=3 / weightb=0 / open_gop=0 / weightp=0 / keyint=250 / keyint_min=23 / scenecut=40 / intra_refresh=0 / rc_lookahead=50 / rc=crf / mbtree=1 / crf=18.0 / qcomp=0.60 / qpmin=0 / qpmax=69 / qpstep=4 / vbv_maxrate=9500 / vbv_bufsize=9500 / crf_max=0.0 / nal_hrd=none / filler=0 / ip_ratio=1.40 / aq=1:1.00
Язык : Japanese
Default : Да
Forced : Нет
Аудио #1
Идентификатор : 2
Формат : AC-3
Формат/Информация : Audio Coding 3
Идентификатор кодека : A_AC3
Продолжительность : 26 м. 45 с.
Вид битрейта : Постоянный
Битрейт : 192 Кбит/сек
Каналы : 2 канала
Расположение каналов : Front: L R
Частота : 48,0 КГц
Частота кадров : 31,250 кадров/сек (1536 SPF)
Битовая глубина : 16 бит
Метод сжатия : С потерями
Размер потока : 36,8 Мбайт (11%)
Заголовок : Persona99
Язык : Russian
ServiceKind/String : Complete Main
Default : Да
Forced : Нет
Аудио #2
Идентификатор : 3
Формат : AC-3
Формат/Информация : Audio Coding 3
Идентификатор кодека : A_AC3
Продолжительность : 26 м. 45 с.
Вид битрейта : Постоянный
Битрейт : 192 Кбит/сек
Каналы : 2 канала
Расположение каналов : Front: L R
Частота : 48,0 КГц
Частота кадров : 31,250 кадров/сек (1536 SPF)
Битовая глубина : 16 бит
Метод сжатия : С потерями
Размер потока : 36,8 Мбайт (11%)
Заголовок : Japanese
Язык : Japanese
ServiceKind/String : Complete Main
Default : Нет
Forced : Нет
Текст #1
Идентификатор : 4
Формат : ASS
Идентификатор кодека : S_TEXT/ASS
Идентификатор кодека/Информация : Advanced Sub Station Alpha
Продолжительность : 25 м. 31 с.
Битрейт : 27 бит/сек
ElementCount : 60
Метод сжатия : Без потерь
Размер потока : 5,17 Кбайт (0%)
Заголовок : Надписи
Язык : Russian
Default : Да
Forced : Нет
Текст #2
Идентификатор : 5
Формат : ASS
Идентификатор кодека : S_TEXT/ASS
Идентификатор кодека/Информация : Advanced Sub Station Alpha
Продолжительность : 25 м. 47 с.
Битрейт : 169 бит/сек
ElementCount : 388
Метод сжатия : Без потерь
Размер потока : 32,0 Кбайт (0%)
Язык : Russian
Default : Нет
Forced : Нет



Вы не можете начинать темы
Вы не можете отвечать на сообщения
Вы не можете редактировать свои сообщения
Вы не можете удалять свои сообщения
Вы не можете голосовать в опросах
Вы не можете прикреплять файлы к сообщениям
Вы можете скачивать файлы