Одному лишь Богу ведомый мир OVA-3 / Kami nomi zo Shiru Sekai: Magical Star Kanon 100% (Касэ Мицуко) [OVA] [1 из 1] [Без хардсаба] [RUS(int), JAP, SUB] [2013, комедия, сёнэн, DVDRip] [720p]


by lev99 ®
30-Дек-2017 22:55

[Цитировать]

Одному лишь Богу ведомый мир OVA-3 / Kami nomi zo Shiru Sekai: Magical Star Kanon 100% (Касэ Мицуко) [OVA] [1 из 1] [Без хардсаба] [RUS(int), JAP, SUB] [2013, комедия, сёнэн, DVDRip] [720p]

Одному лишь Богу ведомый мир OVA-3 / Kami nomi zo Shiru Sekai: Magical Star Kanon 100%
Страна: Япония
Год выпуска: 2013 г.
Жанр: комедия, сёнэн
Тип: OVA
Эпизоды: 1 из 1
Продолжительность: 25 мин.
Режиссер: Касэ Мицуко
Студия: Manglobe Inc.
Описание: Бонус к эксклюзивному ограниченному изданию 22-го тома манги.
- world-art -
Возраст: 14+
Рейтинг MPAA: PG-13
Доп. информация: Это апскейл с чисткой артефактов, что бы лучше выглядело на современных 16:9 экранах.
Качество: DVDRip
Тип релиза: Без хардсаба
Формат видео: MKV
Видео: x264@L3.1, 1280*720(16:9), 2327 kbps, 23,976 fps, 0.105 bit/pixel, 8 bit
Аудио: AAC (LC), 192 Kbps, 48.0Hz, 2 ch Язык Русский (в составе контейнера) ; Озвучка: Одноголосная (жен.) Persona99
Аудио 2: AAC (LC), 192 Kbps, 48.0Hz, 2 ch Язык Японский ; Озвучка 2: Оригинальная
Субтитры: ASS, встроенные Язык субтитров русский

MediaInfo

Общее
Уникальный идентификатор : 225557443810599221229406904666791959597 (0xA9B0C894DC3A95A897DCE711ED295C2D)
Полное имя : \[ARRU] Kami nomi zo Shiru Sekai ~Magical Star Kanon 100%~\Kami nomi zo Shiru Sekai ~Magical Star Kanon 100%~ [Persona99].mkv
Формат : Matroska
Версия формата : Version 4 / Version 2
Размер файла : 472 Мбайт
Продолжительность : 24 м. 20 с.
Общий поток : 2713 Кбит/сек
Дата кодирования : UTC 2017-08-08 07:33:40
Программа кодирования : mkvmerge v14.0.0 ('Flow') 64bit
Библиотека кодирования : libebml v1.3.4 + libmatroska v1.4.5
Видео
Идентификатор : 1
Формат : AVC
Формат/Информация : Advanced Video Codec
Профиль формата : High@L3.1
Настройки формата : 3 Ref Frames
Параметр CABAC формата : Нет
Параметр RefFrames формата : 3 кадра
Идентификатор кодека : V_MPEG4/ISO/AVC
Продолжительность : 24 м. 19 с.
Битрейт : 2327 Кбит/сек
Ширина : 1280 пикселей
Высота : 720 пикселей
Соотношение сторон : 16:9
Режим частоты кадров : Постоянный
Частота кадров : 23,976 (24000/1001) кадра/сек
Цветовое пространство : YUV
Субдискретизация насыщенности : 4:2:0
Битовая глубина : 8 бит
Тип развёртки : Прогрессивная
Бит/(Пиксели*Кадры) : 0.105
Размер потока : 405 Мбайт (86%)
Библиотека кодирования : x264 core 146 r2538 121396c
Настройки программы : cabac=0 / ref=3 / deblock=1:0:0 / analyse=0x3:0x113 / me=umh / subme=8 / psy=1 / psy_rd=1.00:0.00 / mixed_ref=1 / me_range=16 / chroma_me=1 / trellis=1 / 8x8dct=1 / cqm=0 / deadzone=21,11 / fast_pskip=1 / chroma_qp_offset=-2 / threads=12 / lookahead_threads=2 / sliced_threads=0 / nr=0 / decimate=1 / interlaced=0 / bluray_compat=0 / constrained_intra=0 / bframes=3 / b_pyramid=0 / b_adapt=2 / b_bias=0 / direct=3 / weightb=0 / open_gop=0 / weightp=0 / keyint=250 / keyint_min=23 / scenecut=40 / intra_refresh=0 / rc_lookahead=50 / rc=crf / mbtree=1 / crf=18.0 / qcomp=0.60 / qpmin=0 / qpmax=69 / qpstep=4 / vbv_maxrate=9500 / vbv_bufsize=9500 / crf_max=0.0 / nal_hrd=none / filler=0 / ip_ratio=1.40 / aq=1:1.00
Default : Да
Forced : Нет
Аудио #1
Идентификатор : 2
Формат : AAC
Формат/Информация : Advanced Audio Codec
Профиль формата : LC
Идентификатор кодека : A_AAC-2
Продолжительность : 24 м. 19 с.
Битрейт : 192 Кбит/сек
Каналы : 2 канала
Расположение каналов : Front: L R
Частота : 48,0 КГц
Частота кадров : 46,875 кадров/сек (1024 SPF)
Метод сжатия : С потерями
Размер потока : 33,4 Мбайт (7%)
Заголовок : Russian
Язык : Russian
Default : Да
Forced : Нет
Аудио #2
Идентификатор : 3
Формат : AAC
Формат/Информация : Advanced Audio Codec
Профиль формата : LC
Идентификатор кодека : A_AAC-2
Продолжительность : 24 м. 20 с.
Битрейт : 192 Кбит/сек
Каналы : 2 канала
Расположение каналов : Front: L R
Частота : 48,0 КГц
Частота кадров : 46,875 кадров/сек (1024 SPF)
Метод сжатия : С потерями
Размер потока : 33,4 Мбайт (7%)
Заголовок : Japanese
Язык : Japanese
Default : Нет
Forced : Нет
Текст
Идентификатор : 4
Формат : ASS
Идентификатор кодека : S_TEXT/ASS
Идентификатор кодека/Информация : Advanced Sub Station Alpha
Продолжительность : 22 м. 47 с.
Битрейт : 111 бит/сек
ElementCount : 326
Метод сжатия : Без потерь
Размер потока : 18,6 Кбайт (0%)
Язык : Russian
Default : Нет
Forced : Нет

Скриншоты

Скачать

Скачать бесплатно и на максимальной скорости!

Как скачивать? · Что такое торрент? · Рейтинг и ограничения




Вы не можете начинать темы
Вы не можете отвечать на сообщения
Вы не можете редактировать свои сообщения
Вы не можете удалять свои сообщения
Вы не можете голосовать в опросах
Вы не можете прикреплять файлы к сообщениям
Вы не можете скачивать файлы