Экс-Драйвер - Фильм / eX-Driver the Movie (Нисимори Акира) [Movie] [1 из 1] [Без хардсаба] [RUS(int), JAP] [2002, спорт, фантастика, сёнэн, DVDRip] [720p]


by lev99 ®
30-Дек-2017 22:25

[Цитировать]

Экс-Драйвер - Фильм / eX-Driver the Movie (Нисимори Акира) [Movie] [1 из 1] [Без хардсаба] [RUS(int), JAP] [2002, спорт, фантастика, сёнэн, DVDRip] [720p]

Экс-Драйвер - Фильм / eX-Driver the Movie / Мега-Водилы
Страна: Япония
Год выпуска: 2002 г.
Жанр: спорт, фантастика, сёнэн
Тип: Movie
Эпизоды: 1 из 1
Продолжительность: полнометражный фильм, 63 мин.
Режиссер: Нисимори Акира
Студия: ACTAS, Inc.
Описание: После победы в отборочном туре на своём поле, Лиза, Лорна и Сойти доросли
до мирового чемпионата икс-водил и представили там сборную Японии. Однако,
как предзнаменование дальнейших неудач, встретили они в первый же день
ошалевший авто-автомобиль. После вполне удачной его остановки и почти полного
успокоения нервов, на них наехала ещё и местная полиция. Злобная полиция
решила задержать их машину на день. Однако, даже этим все проблемы
не закончились. Пропала дочь спонсора команды США, Анжела.
- world-art -
Возраст: 14+
Рейтинг MPAA: PG-13
Доп. информация: Это апскейл с чисткой артефактов, что бы лучше выглядело на современных 16:9 экранах.
Качество: DVDRip
Тип релиза: Без хардсаба
Формат видео: MKV
Видео: x264@L3.1, 1280*720(16:9), 3430 kbps, 23,976 fps, 0.155 bit/pixel, 8 bit
Аудио: AC-3, 192 Kbps, 48.0Hz, 2 ch Язык Русский (в составе контейнера) ; Озвучка: Одноголосная (жен.) Persona99 / GSGroup
Аудио 2: AC-3, 192 Kbps, 48.0Hz, 2 ch Язык Японский ; Озвучка 2: Оригинальная
Субтитры: AAS, встроене Язык субтитров русский

Скриншоты

MediaInfo

Общее
Уникальный идентификатор : 194124170308152453248973071772422807771 (0x920AF48B6EDDD03B9D531FB16A38A0DB)
Полное имя : \[ARRU] eX-Driver the Movie [Persona99]\[ARRU] eX-Driver the Movie [Persona99].mkv
Формат : Matroska
Версия формата : Version 4 / Version 2
Размер файла : 1,68 Гбайт
Продолжительность : 1 ч. 3 м.
Общий поток : 3813 Кбит/сек
Дата кодирования : UTC 2017-08-08 16:57:29
Программа кодирования : mkvmerge v14.0.0 ('Flow') 64bit
Библиотека кодирования : libebml v1.3.4 + libmatroska v1.4.5
Обложка : Yes
Attachments : cover.jpg
Видео
Идентификатор : 1
Формат : AVC
Формат/Информация : Advanced Video Codec
Профиль формата : High@L3.1
Настройки формата : 3 Ref Frames
Параметр CABAC формата : Нет
Параметр RefFrames формата : 3 кадра
Идентификатор кодека : V_MPEG4/ISO/AVC
Продолжительность : 1 ч. 3 м.
Битрейт : 3430 Кбит/сек
Ширина : 1280 пикселей
Высота : 720 пикселей
Соотношение сторон : 16:9
Режим частоты кадров : Постоянный
Частота кадров : 23,976 (24000/1001) кадра/сек
Цветовое пространство : YUV
Субдискретизация насыщенности : 4:2:0
Битовая глубина : 8 бит
Тип развёртки : Прогрессивная
Бит/(Пиксели*Кадры) : 0.155
Размер потока : 1,51 Гбайт (90%)
Библиотека кодирования : x264 core 146 r2538 121396c
Настройки программы : cabac=0 / ref=3 / deblock=1:0:0 / analyse=0x3:0x113 / me=umh / subme=8 / psy=1 / psy_rd=1.00:0.00 / mixed_ref=1 / me_range=16 / chroma_me=1 / trellis=1 / 8x8dct=1 / cqm=0 / deadzone=21,11 / fast_pskip=1 / chroma_qp_offset=-2 / threads=12 / lookahead_threads=2 / sliced_threads=0 / nr=0 / decimate=1 / interlaced=0 / bluray_compat=0 / constrained_intra=0 / bframes=3 / b_pyramid=0 / b_adapt=2 / b_bias=0 / direct=3 / weightb=0 / open_gop=0 / weightp=0 / keyint=250 / keyint_min=23 / scenecut=40 / intra_refresh=0 / rc_lookahead=50 / rc=crf / mbtree=1 / crf=18.0 / qcomp=0.60 / qpmin=0 / qpmax=69 / qpstep=4 / vbv_maxrate=9500 / vbv_bufsize=9500 / crf_max=0.0 / nal_hrd=none / filler=0 / ip_ratio=1.40 / aq=1:1.00
Default : Да
Forced : Нет
Аудио #1
Идентификатор : 2
Формат : AC-3
Формат/Информация : Audio Coding 3
Идентификатор кодека : A_AC3
Продолжительность : 1 ч. 2 м.
Вид битрейта : Постоянный
Битрейт : 192 Кбит/сек
Каналы : 2 канала
Расположение каналов : Front: L R
Частота : 48,0 КГц
Частота кадров : 31,250 кадров/сек (1536 SPF)
Битовая глубина : 16 бит
Метод сжатия : С потерями
Размер потока : 85,9 Мбайт (5%)
Заголовок : Russian
Язык : Russian
ServiceKind/String : Complete Main
Default : Да
Forced : Нет
Аудио #2
Идентификатор : 3
Формат : AC-3
Формат/Информация : Audio Coding 3
Идентификатор кодека : A_AC3
Продолжительность : 1 ч. 2 м.
Вид битрейта : Постоянный
Битрейт : 192 Кбит/сек
Каналы : 6 каналов
Расположение каналов : Front: L C R, Side: L R, LFE
Частота : 48,0 КГц
Частота кадров : 31,250 кадров/сек (1536 SPF)
Битовая глубина : 16 бит
Метод сжатия : С потерями
Размер потока : 85,9 Мбайт (5%)
Заголовок : Japanese
Язык : Japanese
ServiceKind/String : Complete Main
Default : Нет
Forced : Нет
Текст
Идентификатор : 4
Формат : UTF-8
Идентификатор кодека : S_TEXT/UTF8
Идентификатор кодека/Информация : UTF-8 Plain Text
Продолжительность : 1 ч. 2 м.
Битрейт : 94 бит/сек
ElementCount : 916
Размер потока : 42,8 Кбайт (0%)
Язык : Russian
Default : Нет
Forced : Нет

Серия состоит из

#1 eX-Driver - OVA (6 эп.), начало цикла, 2000
#2 eX-Driver: Nina & Rei Danger Zone - OVA (1 эп.), предыстория, 2002
#3 eX-Driver the Movie - п/ф, продолжение, 2002
Скачать

Скачать бесплатно и на максимальной скорости!

Как скачивать? · Что такое торрент? · Рейтинг и ограничения




Вы не можете начинать темы
Вы не можете отвечать на сообщения
Вы не можете редактировать свои сообщения
Вы не можете удалять свои сообщения
Вы не можете голосовать в опросах
Вы не можете прикреплять файлы к сообщениям
Вы не можете скачивать файлы