Мама / Серии: 1-16 из 16 (Гузэль Киреева) [2018, мелодрама, WEBRip]


by Boris G ®
23-Dec-2018 15:23

[Quote]

Мама / Серии: 1-16 из 16 (Гузэль Киреева) [2018, мелодрама, WEBRip]

Мама
Год выпуска: 2018
Производство: Студия 2В
Жанр: мелодрама
Продолжительность: ~00:47:00 серия
Субтитры: нет
Режиссёр: Гузэль Киреева
В ролях: Юлия Мельникова, Павел Трубинер, Марина Дровосекова, Борис Щербаков, Галина Польских, Юлия Куварзина, Анна Попова, Валерия Шкирандо, Мариам Мерабова, Владимир Кошевой, Олеся (Ольга) Поташинская, Алёна Новицкая, Олег Филипчик, Андрей Шишков, Алексей Матошин, Екатерина Кульчицкая, Дэни Аласания, Александр Бобров, Наталия Гаранина, Екатерина Васильева, Елена Чарквиани, Владимир Фекленко, Степан Абрамов, Амир Бай
Описание: Молодая учительница русского языка и литературы Вера Субботина начала новую жизнь: переехала из Санкт-Петербурга в Москву и устроилась на работу в лицей. Новый коллектив, новые ученики, новые знакомства, но старые ошибки прошлого неожиданно напомнили о себе… Встреча с негласным лидером класса, трудным подростком Кристиной и ее родителями, Надеждой и Кириллом Успенскими, перевернула жизнь Веры и вернула в прошлое, от которого она так пыталась убежать... Несколько лет назад Вере пришлось отказаться от своей любви к Кириллу, чтобы не разрушить счастье Надежды, хотя он умолял ее остаться. Теперь судьба снова подвергает ее испытаниям, сталкивая с любимым человеком в сложной ситуации. Сможет ли Вера побороть свои чувства или все-таки выберет любовь — мужчину, готового ради нее на все?

Реклама: Нет.
Кинопоиск
Все раздачи сериала
Sample
Качество: WEBRip - Files-x
Формат: AVI
Видео кодек: XviD
Аудио кодек: AC3
Видео: 720x400 (1.80:1), 25 fps, XviD build 73 ~1500 kbps avg, 0.208 bit/pixel
Аудио: 48.0 kHz, AC3 Dolby Digital, 2/0 (L,R) ch, ~ 192 kbps

Внимание! Раздача ведётся путём добавления новых серий

Раздача ведётся путём добавления новых серий, при каждом добавлении создаётся новый торрент. Чтобы начать докачку новой серии, пользователям необходимо сделать следующее:
- Остановить скачивание.
- Удалить старый торрент у себя из клиента (старые серии удалять не надо).
- Скачать новый торрент и запустить его у себя в клиенте вместо старого, при этом указать клиенту путь в старую папку куда и должно происходить скачивание новых серий.
Ваш клиент при этом должен произвести хеширование (проверку) старой папки (если не производит сам - помогите ему сделать это), и будет докачивать только те серии которых у вас ещё нет. Старые серии при этом не удаляются, а продолжают раздаваться!
Если вы уже удалили старые серии, то предотвратить повторную закачку старых серий можно, отжав галочку в соответствующих местах при запуске нового торрента. По возможности, желательно не удалять старые серии как можно дольше, чтобы релизер не столько продолжал раздавать старые серии, а смог сконцентрироваться на новых.

MI

General
Complete name : D:\mama.2018.WEB-DLRip.Files-x\01.mama.2018.WEB-DLRip.Files-x.avi
Format : AVI
Format/Info : Audio Video Interleave
File size : 577 MiB
Duration : 47 min 26 s
Overall bit rate : 1 702 kb/s
Writing application : VirtualDubMod 1.5.10.3 | www.virtualdub-fr.org || (build 2550/release)
Writing library : VirtualDubMod build 2550/release
Video
ID : 0
Format : MPEG-4 Visual
Format profile : Advanced Simple@L5
Format settings : BVOP1 / Custom Matrix
Format settings, BVOP : 1
Format settings, QPel : No
Format settings, GMC : No warppoints
Format settings, Matrix : Custom
Codec ID : XVID
Codec ID/Hint : XviD
Duration : 47 min 26 s
Bit rate : 1 500 kb/s
Width : 720 pixels
Height : 400 pixels
Display aspect ratio : 16:9
Frame rate : 25.000 FPS
Color space : YUV
Chroma subsampling : 4:2:0
Bit depth : 8 bits
Scan type : Progressive
Compression mode : Lossy
Bits/(Pixel*Frame) : 0.208
Stream size : 509 MiB (88%)
Writing library : XviD 73
Audio
ID : 1
Format : AC-3
Format/Info : Audio Coding 3
Codec ID : 2000
Duration : 47 min 26 s
Bit rate mode : Constant
Bit rate : 192 kb/s
Channel(s) : 2 channels
Channel positions : Front: L R
Sampling rate : 48.0 kHz
Frame rate : 31.250 FPS (1536 SPF)
Bit depth : 16 bits
Compression mode : Lossy
Stream size : 65.1 MiB (11%)
Alignment : Split accross interleaves
Interleave, duration : 40 ms (1.00 video frame)
Interleave, preload duratio : 500 ms
Service kind : Complete Main

Скриншоты


Download

Download free and at maximum speed!

How to Download? · What is a torrent? · Ratings and Limitations




You cannot post new topics in this forum
You cannot reply to topics in this forum
You cannot edit your posts in this forum
You cannot delete your posts in this forum
You cannot vote in polls in this forum
You cannot attach files in this forum
You cannot download files in this forum