Анна Каренина / Любовь и смерть Карениной Анны / Сезон: 1 / Серии: 1-5 из 5 (Сергей Соловьев) [2009, драма, экранизация, HDTVRip]


by Boris G ®
23-Dec-2018 15:23

[Quote]

Анна Каренина / Любовь и смерть Карениной Анны / Сезон: 1 / Серии: 1-5 из 5 (Сергей Соловьев) [2009, драма, экранизация, HDTVRip]

Анна Каренина- > Год выпуска: 2009
> Производство: «Линия Кино при участии Югра-Фильм и ТриТэ»
> Жанр: Драма, экранизация
> Продолжительность: ~ 49 мин.
> Субтитры: Отсутствуют-> Режиссер: Сергей Соловьев-> В ролях: Татьяна Друбич, Олег Янковский, Ярослав Бойко, Александр Абдулов, Елена Дробышева, Сергей Гармаш, Мария Аниканова, Евгения Крюкова, Екатерина Васильева, Людмила Максакова, Людмила Савельева, Эдуард Марцевич, Екатерина Волкова и др.-> Описание: Экранизация одноименного романа Льва Николаевича Толстого.
История незаконной и трагичной любви замужней дамы Анны Карениной к блестящему офицеру Вронскому.-> Релиз группы
-> Все раздачи сериала
> Семпл
> Кино-Театр-> Качество: HDTVRip [Источник HDTV 1080i]
> Формат: AVI
> Видео кодек: XviD
> Аудио кодек: AC3
> Видео: 720x400 (1.80:1), 25 fps, XviD build 73 ~1499 kbps avg, 0.21 bit/pixel
> Аудио: 48 kHz, AC3 Dolby Digital, 2/0 (L,R) ch, ~192.00 kbps avg

MediaInfo

Код:General
Complete name : D:\Анна Каренина\Anna.Karenina.s01e01.2009.HDTVRip.RG.Russkie.serialy.avi
Format : AVI
Format/Info : Audio Video Interleave
File size : 613 MiB
Duration : 50mn 21s
Overall bit rate : 1 702 Kbps
Writing application : VirtualDubMod 1.5.10.3 | www.virtualdub-fr.org || (build 2550/release)
Writing library : VirtualDubMod build 2550/release
Video
ID : 0
Format : MPEG-4 Visual
Format profile : Advanced Simple@L5
Format settings, BVOP : 2
Format settings, QPel : No
Format settings, GMC : No warppoints
Format settings, Matrix : Custom
Codec ID : XVID
Codec ID/Hint : XviD
Duration : 50mn 21s
Bit rate : 1 500 Kbps
Width : 720 pixels
Height : 400 pixels
Display aspect ratio : 16:9
Frame rate : 25.000 fps
Color space : YUV
Chroma subsampling : 4:2:0
Bit depth : 8 bits
Scan type : Progressive
Compression mode : Lossy
Bits/(Pixel*Frame) : 0.208
Stream size : 540 MiB (88%)
Writing library : XviD 73
Audio
ID : 1
Format : AC-3
Format/Info : Audio Coding 3
Mode extension : CM (complete main)
Format settings, Endianness : Big
Codec ID : 2000
Duration : 50mn 21s
Bit rate mode : Constant
Bit rate : 192 Kbps
Channel(s) : 2 channels
Channel positions : Front: L R
Sampling rate : 48.0 KHz
Bit depth : 16 bits
Compression mode : Lossy
Stream size : 69.1 MiB (11%)
Alignment : Split accross interleaves
Interleave, duration : 40 ms (1.00 video frame)
Interleave, preload duration : 500 ms

Скриншоты








СравнениеСравнение с этой раздачей http://rutracker.org/forum/viewtopic.php?t=4369533
http://screenshotcomparison.com/comparison/124676/picture:5
Download

Download free and at maximum speed!

How to Download? · What is a torrent? · Ratings and Limitations




You cannot post new topics in this forum
You cannot reply to topics in this forum
You cannot edit your posts in this forum
You cannot delete your posts in this forum
You cannot vote in polls in this forum
You cannot attach files in this forum
You cannot download files in this forum