Богатырша (Ольга Лопато) [2015, Россия, Мультипликация, BDRip 720p]


by Boris G ®
23-Dec-2018 15:24

[Quote]

Богатырша (Ольга Лопато) [2015, Россия, Мультипликация, BDRip 720p]

Богатырша
Страна: Россия
Жанр: Мультипликация
Продолжительность: 01:15:52
Год выпуска: 2015
Перевод: Не требуется
Русские субтитры: нет--Режиссёр: Ольга Лопато--Роли озвучивали: Михаил Пореченков, Алёна Бабенко, Гарик Харламов, Тимур Батрутдинов, Анна Хилькевич, Борис Щербаков, Армен Джигарханян, Алексей Чумаков.--Описание: …И было предсказание славному витязю Бориполку, что у него родится сын, который станет великим воином и спасет Русь от великой напасти.
Но, как всегда, все вышло наоборот: у героя родилась… дочка. А спасения Руси никто не отменял.
И как сражаться с врагом, когда у него три головы, и каждая со своими выкрутасами?--Доп. информация: | КиноПоиск | Сэмпл--Качество: BDRip 720p
Формат: MKV
Видео: x264@L4.1, 1280x536 at 23.976 fps, 5735 kbps avg
Аудио: DTS, 3/2 (L,C,R,l,r) + LFE ch, 48 kHz, 1536.00 kbps avg
Субтитры: отсутствуют

Скриншоты

Подробные технические данные

General
Unique ID : 211699667914581825022650848528439627798 (0x9F43DF7AA848553695F97DFA1572D016)
Complete name : Богатырша (2015).mkv
Format : Matroska
Format version : Version 4 / Version 2
File size : 3.92 GiB
Duration : 1h 15mn
Overall bit rate : 7 391 Kbps
Movie name : Богатырша (2015)
Encoded date : UTC 2016-03-07 05:58:09
Writing application : mkvmerge v8.1.0 ('Psychedelic Postcard') 64bit
Writing library : libebml v1.3.1 + libmatroska v1.4.2
Cover : Yes
Attachments : cover.jpg
Video
ID : 1
Format : AVC
Format/Info : Advanced Video Codec
Format profile : High@L4.1
Format settings, CABAC : Yes
Format settings, ReFrames : 12 frames
Codec ID : V_MPEG4/ISO/AVC
Duration : 1h 15mn
Bit rate : 5 880 Kbps
Width : 1 280 pixels
Height : 536 pixels
Display aspect ratio : 2.40:1
Frame rate mode : Constant
Frame rate : 25.000 fps
Color space : YUV
Chroma subsampling : 4:2:0
Bit depth : 8 bits
Scan type : Progressive
Bits/(Pixel*Frame) : 0.343
Stream size : 3.12 GiB (80%)
Title : Богатырша (2015)
Writing library : x264 core 142 r2431+42 c69a006 tMod [8-bit@all X86_64]
Encoding settings : cabac=1 / ref=12 / deblock=1:-3:-3 / analyse=0x3:0x133 / me=umh / subme=11 / psy=1 / fade_compensate=0.00 / psy_rd=1.00:0.00 / mixed_ref=1 / me_range=48 / chroma_me=1 / trellis=2 / 8x8dct=1 / cqm=0 / deadzone=21,11 / fast_pskip=0 / chroma_qp_offset=-2 / threads=18 / lookahead_threads=3 / sliced_threads=0 / nr=0 / decimate=1 / interlaced=0 / bluray_compat=0 / constrained_intra=0 / fgo=0 / bframes=8 / b_pyramid=2 / b_adapt=2 / b_bias=0 / direct=1 / weightb=1 / open_gop=0 / weightp=2 / keyint=240 / keyint_min=24 / scenecut=40 / intra_refresh=0 / rc_lookahead=60 / rc=crf / mbtree=0 / crf=16.5000 / qcomp=0.60 / qpmin=0:0:0 / qpmax=69:69:69 / qpstep=4 / vbv_maxrate=50000 / vbv_bufsize=62500 / crf_max=0.0 / nal_hrd=none / filler=0 / ip_ratio=1.35 / pb_ratio=1.25 / aq=1:0.80 / aq-sensitivity=10.00 / aq-factor=1.00:1.00:1.00 / aq2=0 / aq3=0
Language : Russian
Default : Yes
Forced : No
Audio
ID : 2
Format : DTS
Format/Info : Digital Theater Systems
Mode : 16
Format settings, Endianness : Big
Codec ID : A_DTS
Duration : 1h 15mn
Bit rate mode : Constant
Bit rate : 1 509 Kbps
Channel(s) : 6 channels
Channel positions : Front: L C R, Side: L R, LFE
Sampling rate : 48.0 KHz
Frame rate : 93.750 fps (512 spf)
Bit depth : 24 bits
Compression mode : Lossy
Stream size : 819 MiB (20%)
Title : DTS 5.1 @ 1536 kbps
Language : Russian
Default : Yes
Forced : No
Menu
00:00:00.000 : ru:
00:01:14.720 : ru:
00:09:19.160 : ru:
00:19:57.280 : ru:
00:29:22.400 : ru:
00:36:22.720 : ru:
00:49:29.040 : ru:
00:55:15.920 : ru:
01:04:41.560 : ru:
Download

Download free and at maximum speed!

How to Download? · What is a torrent? · Ratings and Limitations




You cannot post new topics in this forum
You cannot reply to topics in this forum
You cannot edit your posts in this forum
You cannot delete your posts in this forum
You cannot vote in polls in this forum
You cannot attach files in this forum
You cannot download files in this forum