Желтый глаз тигра / Серии: 1-16 из 16 (Марк Горобец) [2018, Боевик, криминал, WEBRip 720p]


by Boris G ®
23-Dec-2018 15:23

[Quote]

Желтый глаз тигра / Серии: 1-16 из 16 (Марк Горобец) [2018, Боевик, криминал, WEBRip 720p]

Желтый глаз тигра- Год выпуска: 2018
Производство: Кинокомпания «Профит»
Жанр: Боевик, криминал
Продолжительность: 0:46:44
Субтитры: нет-Режиссёр: Марк Горобец-В ролях: Павел Прилучный, Карина Андоленко, Роман Курцын, Максим Костромыкин, Виталий Кищенко, Екатерина Буйлова, Иван Ивашкин, Маша Шерстобитова, Светлана Степанковская, Сергей Пускепалис, Евгения Добровольская, Агния Кузнецова, Катерина Шпица, Борис Каморзин, Лариса Шахворостова, Раиса Рязанова, Александра Ребенок, Игорь Филиппов, Юлия Агафонова, Александр Лымарев, Александр Никольский (II), Владимир Чуприков, Максим Глотов, Никита Абдулов, Сергей Друзьяк, Александра Скачкова, Александр Андриенко, Андрей Гусев, Арсений Васильевых, Евгений Мундум-Описание: 1988 год, Калининград. Четверо лучших друзей отмечают школьный выпускной и делятся планами на будущее, мечтая связать свою жизнь с янтарем. Но янтарный бизнес превращает бывших юных мечтателей в алчных хладнокровных дельцов, не гнушающихся даже воровством и убийствами. Спустя 15 лет одному из героев придется бороться с друзьями юности, чтобы разоблачить преступную сеть и остановить «янтарный беспредел».-Сэмпл: http://multi-up.com/1215464-Релиз-группа: -Качество: WEBRip 720p / Getty Group
Формат: MKV
Видео кодек: H.264
Аудио кодек: AC3
Видео: MPEG-4 AVC, 1280x720 (16:9), 25.000 fps, 3200 Kbps, 0.132 bits/pixel
Аудио: 48 kHz, AC3 Dolby Digital, 2 ch, 192 Kbps
Реклама: Нет

MI

General
Complete name : Downloads\Zheltyy.glaz.tigra.2018.WEB-DL.(720p).Getty\Zheltyy.glaz.tigra.e01.2018.WEB-DL.(720p).Getty.mkv
Format : Matroska
Format version : Version 4 / Version 2
File size : 1.08 GiB
Duration : 46mn 44s
Overall bit rate mode : Constant
Overall bit rate : 3 300 Kbps
Writing application : mkvmerge v7.8.0 ('River Man') 32bit built on Mar 27 2015 16:18:02
Writing library : libebml v1.3.1 + libmatroska v1.4.2
DURATION : 00:46:44.032000000
NUMBER_OF_FRAMES : 87626
NUMBER_OF_BYTES : 67296768
_STATISTICS_WRITING_APP : mkvmerge v7.8.0 ('River Man') 32bit built on Mar 27 2015 16:18:02
_STATISTICS_WRITING_DATE_UTC : 2018-11-19 17:53:47
_STATISTICS_TAGS : BPS DURATION NUMBER_OF_FRAMES NUMBER_OF_BYTES
Video #1
ID : 1
Format : AVC
Format/Info : Advanced Video Codec
Format profile : High@L4.1
Format settings, CABAC : Yes
Format settings, ReFrames : 4 frames
Codec ID : V_MPEG4/ISO/AVC
Duration : 46mn 44s
Bit rate mode : Constant
Bit rate : 3 043 Kbps
Nominal bit rate : 3 200 Kbps
Width : 1 280 pixels
Height : 720 pixels
Display aspect ratio : 16:9
Frame rate mode : Constant
Frame rate : 25.000 fps
Color space : YUV
Chroma subsampling : 4:2:0
Bit depth : 8 bits
Scan type : Progressive
Bits/(Pixel*Frame) : 0.132
Stream size : 1 017 MiB (92%)
Default : Yes
Forced : No
Audio #2
ID : 2
Format : AC-3
Format/Info : Audio Coding 3
Mode extension : CM (complete main)
Format settings, Endianness : Big
Codec ID : A_AC3
Duration : 46mn 44s
Bit rate mode : Constant
Bit rate : 192 Kbps
Channel(s) : 2 channels
Channel positions : Front: L R
Sampling rate : 48.0 KHz
Bit depth : 16 bits
Compression mode : Lossy
Stream size : 64.2 MiB (6%)
Default : Yes
Forced : No

Скриншоты

Внимание! Раздача ведётся путём добавления новых серий:

(1) остановить скачивание,
(2) удалить старый торрент у себя из клиента (старые серии удалять не надо),
(3) скачать новый торрент и запустить его у себя в клиенте вместо старого, при этом указать клиенту путь в старую папку куда и должно происходить скачивание новых серий.
Ваш клиент при этом должен произвести хеширование (проверку) старой папки (если не производит сам - помогите ему сделать это), и будет докачивать только те серии которых у вас ещё нет. Старые серии при этом не удаляются, а продолжают раздаваться!
Eсли вы уже удалили старые серии, то предотвратить повторную закачку старых серий можно, отжав галочку в соответсвующих местах при запуске нового торрента. По возможности, желательно не удалять старые серии как можно дольше чтобы релизёр не столько продолжал раздавать старые серии, а смог сконцентрироваться на новых
.
Предыдущие и альтернативные раздачи
Download

Download free and at maximum speed!

How to Download? · What is a torrent? · Ratings and Limitations




You cannot post new topics in this forum
You cannot reply to topics in this forum
You cannot edit your posts in this forum
You cannot delete your posts in this forum
You cannot vote in polls in this forum
You cannot attach files in this forum
You cannot download files in this forum