Желтый глаз тигра / Серии: 1-16 из 16 (Марк Горобец) [2018, Боевик, криминал, WEBRip]


by Boris G ®
23-Dec-2018 15:23

[Quote]

Желтый глаз тигра / Серии: 1-16 из 16 (Марк Горобец) [2018, Боевик, криминал, WEBRip]

Желтый глаз тигра- Год выпуска: 2018
Производство: Кинокомпания «Профит»
Жанр: Боевик, криминал
Продолжительность: 00:46:44
Субтитры: нет-Режиссёр: Марк Горобец-В ролях: Павел Прилучный, Карина Андоленко, Роман Курцын, Максим Костромыкин, Виталий Кищенко, Екатерина Буйлова, Иван Ивашкин, Маша Шерстобитова, Светлана Степанковская, Сергей Пускепалис, Евгения Добровольская, Агния Кузнецова, Катерина Шпица, Борис Каморзин, Лариса Шахворостова, Раиса Рязанова, Александра Ребенок, Игорь Филиппов, Юлия Агафонова, Александр Лымарев, Александр Никольский (II), Владимир Чуприков, Максим Глотов, Никита Абдулов, Сергей Друзьяк, Александра Скачкова, Александр Андриенко, Андрей Гусев, Арсений Васильевых, Евгений Мундум-Описание: 1988 год, Калининград. Четверо лучших друзей отмечают школьный выпускной и делятся планами на будущее, мечтая связать свою жизнь с янтарем.
Но янтарный бизнес превращает бывших юных мечтателей в алчных хладнокровных дельцов, не гнушающихся даже воровством и убийствами.
Спустя 15 лет одному из героев придется бороться с друзьями юности, чтобы разоблачить преступную сеть и остановить «янтарный беспредел».-Сэмпл: http://multi-up.com/1215468- -Качество: WEBRip
Формат: AVI
Видео кодек: XviD
Аудио кодек: AC3
Видео: 720x304 (2.35:1), 25 fps, XviD build 73, 1465 Kbps, 0.26 bit/pixel
Аудио: 48 kHz, AC3, 2 ch, 192.00 kbps
Реклама: Нет

MI

General
Complete name : Downloads\Zheltyj.Glaz.Tigra.2018.XviD.WEB-DLRip.GeneralFilm\Zheltyj.Glaz.Tigra.e01.avi
Format : AVI
Format/Info : Audio Video Interleave
File size : 557 MiB
Duration : 46mn 44s
Overall bit rate : 1 667 Kbps
Writing application : VirtualDubMod 1.5.10.3 | www.virtualdub-fr.org || (build 2550/release)
Writing library : VirtualDubMod build 2550/release
Video #0
ID : 0
Format : MPEG-4 Visual
Format profile : Advanced Simple@L5
Format settings, BVOP : 1
Format settings, QPel : No
Format settings, GMC : No warppoints
Format settings, Matrix : Custom
Codec ID : XVID
Codec ID/Hint : XviD
Duration : 46mn 44s
Bit rate : 1 465 Kbps
Width : 720 pixels
Height : 304 pixels
Display aspect ratio : 2.35:1
Frame rate : 25.000 fps
Color space : YUV
Chroma subsampling : 4:2:0
Bit depth : 8 bits
Scan type : Progressive
Compression mode : Lossy
Bits/(Pixel*Frame) : 0.268
Stream size : 490 MiB (88%)
Writing library : XviD 73
Audio #1
ID : 1
Format : AC-3
Format/Info : Audio Coding 3
Mode extension : CM (complete main)
Format settings, Endianness : Big
Codec ID : 2000
Duration : 46mn 44s
Bit rate mode : Constant
Bit rate : 192 Kbps
Channel(s) : 2 channels
Channel positions : Front: L R
Sampling rate : 48.0 KHz
Bit depth : 16 bits
Compression mode : Lossy
Stream size : 64.2 MiB (12%)
Alignment : Split accross interleaves
Interleave, duration : 40 ms (1.00 video frame)
Interleave, preload duration : 500 ms

Скриншоты

Внимание! Раздача ведётся путём добавления новых серий:

(1) остановить скачивание,
(2) удалить старый торрент у себя из клиента (старые серии удалять не надо),
(3) скачать новый торрент и запустить его у себя в клиенте вместо старого, при этом указать клиенту путь в старую папку куда и должно происходить скачивание новых серий.
Ваш клиент при этом должен произвести хеширование (проверку) старой папки (если не производит сам - помогите ему сделать это), и будет докачивать только те серии которых у вас ещё нет. Старые серии при этом не удаляются, а продолжают раздаваться!
Eсли вы уже удалили старые серии, то предотвратить повторную закачку старых серий можно, отжав галочку в соответсвующих местах при запуске нового торрента. По возможности, желательно не удалять старые серии как можно дольше чтобы релизёр не столько продолжал раздавать старые серии, а смог сконцентрироваться на новых
.
Предыдущие и альтернативные раздачи
Download

Download free and at maximum speed!

How to Download? · What is a torrent? · Ratings and Limitations




You cannot post new topics in this forum
You cannot reply to topics in this forum
You cannot edit your posts in this forum
You cannot delete your posts in this forum
You cannot vote in polls in this forum
You cannot attach files in this forum
You cannot download files in this forum