Тень / Серии: 1-4 из 4 (Павел Мальков) [2018, мелодрама, HDTVRip]


by Boris G ®
23-Dec-2018 15:23

[Quote]

Тень / Серии: 1-4 из 4 (Павел Мальков) [2018, мелодрама, HDTVRip]

Тень
Год выпуска: 2018
Производство: Кинокомпания «Дерево», Атлантик
Жанр: мелодрама
Продолжительность: ~00:45:00 серия
Субтитры: нет
Режиссёр: Павел Мальков
В ролях: Ольга Павловец, Дмитрий Исаев, Любава Грешнова, Михаил Пшеничный, Андрей Павловец, Дмитрий Быковский
Описание: Ярослава вместе со своим маленьким сыном Мишей попадает в автокатастрофу. Героиня остается цела, а Мишу найти не могут. Ярослава уверена, что сын жив и всеми силами пытается его найти. Только вот никто из окружающих, включая полицию, не верит в чудесное спасение мальчика, а близкие и вовсе уверены, что Ярослава не в себе. Действительно, со стороны, все именно так и выглядит — обезумевшая от горя мать, не может смириться с гибелью ребенка, в которой сама виновна. Но вот когда она уже соглашается лечь в психиатрическую клинику, раздается телефонный звонок и Ярослава слышит… голос своего сына. Действительно ли она сходит с ума или кто-то специально прячет от нее сына, но кто и зачем?

Реклама: Нет.
Кинопоиск
Все раздачи сериала
Sample
Качество: HDTVRip
Формат: AVI
Видео кодек: XviD
Аудио кодек: AC3
Видео: 720x400 (1.80:1), 25 fps, XviD build 73 ~1700 kbps avg, 0.236 bit/pixel
Аудио: 48.0 kHz, AC3 Dolby Digital, 2/0 (L,R) ch, ~ 192 kbps

MI

General
Complete name : D:\Тень 2018 HDTVRip\01.Тень 2018 HDTVRip.avi
Format : AVI
Format/Info : Audio Video Interleave
File size : 1.19 GiB
Duration : 1 h 29 min
Overall bit rate : 1 900 kb/s
Writing application : VirtualDubMod 1.5.10.3 | www.virtualdub-fr.org || (build 2550/release)
Writing library : VirtualDubMod build 2550/release
Video
ID : 0
Format : MPEG-4 Visual
Format profile : Advanced Simple@L5
Format settings : BVOP1
Format settings, BVOP : 1
Format settings, QPel : No
Format settings, GMC : No warppoints
Format settings, Matrix : Default (MPEG)
Codec ID : XVID
Codec ID/Hint : XviD
Duration : 1 h 29 min
Bit rate : 1 698 kb/s
Width : 720 pixels
Height : 400 pixels
Display aspect ratio : 16:9
Frame rate : 25.000 FPS
Color space : YUV
Chroma subsampling : 4:2:0
Bit depth : 8 bits
Scan type : Progressive
Compression mode : Lossy
Bits/(Pixel*Frame) : 0.236
Stream size : 1.06 GiB (89%)
Writing library : XviD 73
Audio
ID : 1
Format : AC-3
Format/Info : Audio Coding 3
Codec ID : 2000
Duration : 1 h 29 min
Bit rate mode : Constant
Bit rate : 192 kb/s
Channel(s) : 2 channels
Channel positions : Front: L R
Sampling rate : 48.0 kHz
Frame rate : 31.250 FPS (1536 SPF)
Bit depth : 16 bits
Compression mode : Lossy
Stream size : 123 MiB (10%)
Alignment : Split accross interleaves
Interleave, duration : 40 ms (1.00 video frame)
Interleave, preload duratio : 500 ms
Service kind : Complete Main

Скриншоты


Download

Download free and at maximum speed!

How to Download? · What is a torrent? · Ratings and Limitations




You cannot post new topics in this forum
You cannot reply to topics in this forum
You cannot edit your posts in this forum
You cannot delete your posts in this forum
You cannot vote in polls in this forum
You cannot attach files in this forum
You cannot download files in this forum