Возвращение к себе / Серии: 1-4 из 4 (Ева Стрельникова) [2018, драма, WEBRip]


by Boris G ®
23-Дек-2018 15:23

[Цитировать]

Возвращение к себе / Серии: 1-4 из 4 (Ева Стрельникова) [2018, драма, WEBRip]

Возвращение к себе
Год выпуска: 2018
Производство: Star Media
Жанр: драма
Продолжительность: ~00:47:00 серия
Субтитры: нет
Режиссёр: Ева Стрельникова
В ролях: Татьяна Лялина, Дмитрий Сова, Игорь Иванов, Олег Масленников, Александр Крючков, Евгения Мягонькая, Ли Берлинская, Олег Москаленко, Ирина Тамим, Елена Лаврова, Сергей Радченко
Описание: После победы в конкурсе красоты "Мисс Счастливое" Лену начинает преследовать маньяк. Он шлет ей письма с угрозами, звонит, нападает на темной улице и насилует девушку. Полиция разводит руками. Лена переезжает в другой город, но призраки прошлого продолжают ее преследовать. Девушке предстоит встретиться со своим страхом лицом к лицу и победить его...

Реклама: Нет.
Все раздачи сериала
Sample
Качество: WEBRip
Формат: AVI
Видео кодек: XviD
Аудио кодек: AC3
Видео: 720x400 (1.80:1), 25 fps, XviD build 73 ~1560 kbps avg, 0.217 bit/pixel
Аудио: 48.0 kHz, AC3 Dolby Digital, 2/0 (L,R) ch, ~ 192 kbps

MI

General
Complete name : D:\Возвращение к себе (2018)\Возвращение к себе.01.WEB-DLRip.avi
Format : AVI
Format/Info : Audio Video Interleave
File size : 597 MiB
Duration : 47 min 21 s
Overall bit rate : 1 762 kb/s
Writing application : VirtualDubMod 1.5.10.3 | www.virtualdub-fr.org || (build 2550/release)
Writing library : VirtualDubMod build 2550/release
Video
ID : 0
Format : MPEG-4 Visual
Format profile : Advanced Simple@L5
Format settings : BVOP2
Format settings, BVOP : 2
Format settings, QPel : No
Format settings, GMC : No warppoints
Format settings, Matrix : Default (H.263)
Codec ID : XVID
Codec ID/Hint : XviD
Duration : 47 min 21 s
Bit rate : 1 560 kb/s
Width : 720 pixels
Height : 400 pixels
Display aspect ratio : 16:9
Frame rate : 25.000 FPS
Color space : YUV
Chroma subsampling : 4:2:0
Bit depth : 8 bits
Scan type : Progressive
Compression mode : Lossy
Bits/(Pixel*Frame) : 0.217
Stream size : 529 MiB (89%)
Writing library : XviD 1.2.1 (UTC 2008-12-04)
Audio
ID : 1
Format : AC-3
Format/Info : Audio Coding 3
Codec ID : 2000
Duration : 47 min 21 s
Bit rate mode : Constant
Bit rate : 192 kb/s
Channel(s) : 2 channels
Channel positions : Front: L R
Sampling rate : 48.0 kHz
Frame rate : 31.250 FPS (1536 SPF)
Bit depth : 16 bits
Compression mode : Lossy
Stream size : 65.0 MiB (11%)
Alignment : Split accross interleaves
Interleave, duration : 40 ms (1.00 video frame)
Interleave, preload duratio : 500 ms
Service kind : Complete Main

Скриншоты


Скачать

Скачать бесплатно и на максимальной скорости!

Как скачивать? · Что такое торрент? · Рейтинг и ограничения




Вы не можете начинать темы
Вы не можете отвечать на сообщения
Вы не можете редактировать свои сообщения
Вы не можете удалять свои сообщения
Вы не можете голосовать в опросах
Вы не можете прикреплять файлы к сообщениям
Вы не можете скачивать файлы