Убийства по пятницам / Серии: 1-4 из 4 (Карен Захаров) [2018,детектив, криминал, SATRip-AVC]


by Boris G ®
23-Dec-2018 15:23

[Quote]

Убийства по пятницам / Серии: 1-4 из 4 (Карен Захаров) [2018,детектив, криминал, SATRip-AVC]

Убийствапо пятницам
- Год выпуска: 2018
Страна: Россия | Телемастер | Хитфильм
Жанр:детектив, криминал
Продолжительность: 00:46:00
Субтитры: нет- Режиссёр: Карен Захаров
В ролях:Антонина Дивина, Андрей Ильин, Тамара Акулова, Светлана Немоляева, Алёна Яковлева, Юрий Поляк, Константин Соловьёв, Александра Никифорова, Дмитрий Мазуров, Антонина Комиссарова, Олег Алмазов- Описание:
Нина — ботаник. Не в смысле очков и синих чулок, а в самом прямом смысле. Когда городской ботанический сад, где она работала, закрыли, Нина и мечтать не могла, что ей улыбнется такая удача: Владимир Шелехов, бизнесмен, наследник старинного княжеского рода и большой оригинал, приглашает ее на работу в свою роскошную усадьбу вместо сбежавшего садовника. Усадьба — еще и живой музей, туристическая достопримечательность, куда приезжают люди со всей страны. А каждую пятницу для туристов открывается не только сад и несколько комнат с исторической обстановкой, но и весь дом. В одну из таких пятниц Нина становится свидетелем внезапной смерти хозяина усадьбы…-
[box=#00db6a,#000000]Все раздачи сериала[/box][box=#00db6a,#FF0000]Без рекламы[/box]- Качество: SATRip-AVC
Формат: MKV
Видео кодек: H.264
Аудио кодек: AC3
Видео: MPEG4 Video (H264), 720х400, 25fps,1700 Kbps,bit/pixel 0.236
Аудио : AC3 48000Hz, stereo, 192 kbps,2 ch

MediaInfo

Общее
Уникальный идентификатор : 252187540753603621221523499983824613277 (0xBDB98DBAF3177951A335EF985E3DEF9D)
Полное имя : F:\Убийства по пятницам\01 серия_Убийства по пятницам_rip by_Aleksan55.mkv
Формат : Matroska
Версия формата : Version 2
Размер файла : 631 Мбайт
Продолжительность : 46 м. 33 с.
Общий поток : 1894 Кбит/сек
Дата кодирования : UTC 2018-11-17 11:07:15
Программа кодирования : mkvmerge v7.8.0 ('River Man') 32bit built on Apr 3 2015 12:11:22
Библиотека кодирования : libebml v1.3.1 + libmatroska v1.4.2
Видео
Идентификатор : 1
Формат : AVC
Формат/Информация : Advanced Video Codec
Профиль формата : High@L4.1
Параметр CABAC формата : Да
Параметр ReFrames формата : 14 кадров
Идентификатор кодека : V_MPEG4/ISO/AVC
Продолжительность : 46 м. 33 с.
Битрейт : 1700 Кбит/сек
Ширина : 720 пикселей
Высота : 400 пикселей
Соотношение сторон : 16:9
Режим частоты кадров : Постоянный
Частота кадров : 25,000 кадров/сек
Цветовое пространство : YUV
Субдискретизация насыщенности : 4:2:0
Битовая глубина : 8 бит
Тип развёртки : Прогрессивная
Бит/(Пиксели*Кадры) : 0.236
Размер потока : 554 Мбайт (88%)
Библиотека кодирования : x264 core 148 r2744kMod b97ae06
Настройки программы : cabac=1 / ref=14 / deblock=1:-1:-1 / analyse=0x3:0x133 / me=umh / subme=9 / psy=1 / fade_compensate=0.00 / psy_rd=0.95:0.15 / mixed_ref=0 / me_range=32 / chroma_me=1 / trellis=2 / 8x8dct=1 / cqm=0 / deadzone=21,11 / fast_pskip=1 / chroma_qp_offset=-3 / threads=4 / lookahead_threads=6 / sliced_threads=0 / nr=0 / decimate=0 / interlaced=0 / bluray_compat=0 / constrained_intra=0 / bframes=14 / b_pyramid=2 / b_adapt=1 / b_bias=0 / direct=3 / weightb=1 / open_gop=0 / weightp=2 / keyint=250 / keyint_min=25 / scenecut=40 / intra_refresh=0 / rc_lookahead=40 / rc=2pass / mbtree=1 / bitrate=1700 / ratetol=1.0 / qcomp=0.60 / qpmin=0 / qpmax=39 / qpstep=4 / cplxblur=20.0 / qblur=0.5 / ip_ratio=1.40 / aq=1:1.00
Default : Да
Forced : Нет
Цветовой диапазон : Limited
Основные цвета : BT.601 PAL
Характеристики трансфера : BT.470 System B, BT.470 System G
Коэффициенты матрицы : BT.601
Аудио
Идентификатор : 2
Формат : AC-3
Формат/Информация : Audio Coding 3
Расширение режима : CM (complete main)
Параметр Endianness формата : Big
Идентификатор кодека : A_AC3
Продолжительность : 46 м. 33 с.
Вид битрейта : Постоянный
Битрейт : 192 Кбит/сек
Каналы : 2 канала
Расположение каналов : Front: L R
Частота : 48,0 КГц
Частота кадров : 31,250 кадров/сек (1536 spf)
Битовая глубина : 16 бит
Метод сжатия : С потерями
Размер потока : 63,9 Мбайт (10%)
Default : Да
Forced : Нет

Скриншоты

Download

Download free and at maximum speed!

How to Download? · What is a torrent? · Ratings and Limitations




You cannot post new topics in this forum
You cannot reply to topics in this forum
You cannot edit your posts in this forum
You cannot delete your posts in this forum
You cannot vote in polls in this forum
You cannot attach files in this forum
You cannot download files in this forum