Убийства по пятницам / Серии: 1-4 из 4 (Карен Захаров) [2018, детектив, WEBRip]


by Boris G ®
23-Dec-2018 15:23

[Quote]

Убийства по пятницам / Серии: 1-4 из 4 (Карен Захаров) [2018, детектив, WEBRip]

Убийства по пятницам
Год выпуска: 2018
Производство: ТелеМастер
Жанр: детектив
Продолжительность: ~00:46:00 серия
Субтитры: нет
Режиссёр: Карен Захаров
В ролях: Антонина Дивина, Андрей Ильин, Тамара Акулова, Светлана Немоляева, Алёна Яковлева, Юрий Поляк, Константин Соловьёв, Александра Никифорова, Дмитрий Мазуров, Антонина Комиссарова, Олег Алмазов
Описание: Нина — ботаник. Не в смысле очков и синих чулок, а в самом прямом смысле. Когда городской ботанический сад, где она работала, закрыли, Нина и мечтать не могла, что ей улыбнется такая удача: Владимир Шелехов, бизнесмен, наследник старинного княжеского рода и большой оригинал, приглашает ее на работу в свою роскошную усадьбу вместо сбежавшего садовника. Усадьба — еще и живой музей, туристическая достопримечательность, куда приезжают люди со всей страны. А каждую пятницу для туристов открывается не только сад и несколько комнат с исторической обстановкой, но и весь дом. В одну из таких пятниц Нина становится свидетелем внезапной смерти хозяина усадьбы.

Реклама: Нет.
Кинопоиск
Все раздачи сериала
Sample
Качество: WEBRip - 25Kuzmich
Формат: AVI
Видео кодек: XviD
Аудио кодек: AC3
Видео: 720x400 (1.80:1), 25 fps, XviD ~1650 kbps avg, 0.229 bit/pixel
Аудио: 48.0 kHz, AC3 Dolby Digital, 2/0 (L,R) ch, ~ 192 kbps

MI

General
Complete name : D:\Ubiystva.po.pyatnitsam.2018.WEB-DLRip.25Kuzmich\Ubiystva.po.pyatnitsam.(01.seriya.iz.04).WEB-DLRip.25Kuzmich.avi
Format : AVI
Format/Info : Audio Video Interleave
File size : 622 MiB
Duration : 46 min 56 s
Overall bit rate : 1 852 kb/s
Writing application : VirtualDubMod 1.5.10.3 | www.virtualdub-fr.org || (build 2550/release)
Writing library : VirtualDubMod build 2550/release
Video
ID : 0
Format : MPEG-4 Visual
Format profile : Advanced Simple@L5
Format settings : BVOP1
Format settings, BVOP : 1
Format settings, QPel : No
Format settings, GMC : No warppoints
Format settings, Matrix : Default (MPEG)
Codec ID : XVID
Codec ID/Hint : XviD
Duration : 46 min 56 s
Bit rate : 1 650 kb/s
Width : 720 pixels
Height : 400 pixels
Display aspect ratio : 16:9
Frame rate : 25.000 FPS
Color space : YUV
Chroma subsampling : 4:2:0
Bit depth : 8 bits
Scan type : Progressive
Compression mode : Lossy
Bits/(Pixel*Frame) : 0.229
Stream size : 554 MiB (89%)
Writing library : XviD 1.2.1 (UTC 2008-12-04)
Audio
ID : 1
Format : AC-3
Format/Info : Audio Coding 3
Codec ID : 2000
Duration : 46 min 56 s
Bit rate mode : Constant
Bit rate : 192 kb/s
Channel(s) : 2 channels
Channel positions : Front: L R
Sampling rate : 48.0 kHz
Frame rate : 31.250 FPS (1536 SPF)
Bit depth : 16 bits
Compression mode : Lossy
Stream size : 64.5 MiB (10%)
Alignment : Split accross interleaves
Interleave, duration : 40 ms (1.00 video frame)
Interleave, preload duratio : 500 ms
Service kind : Complete Main

Скриншоты


Download

Download free and at maximum speed!

How to Download? · What is a torrent? · Ratings and Limitations




You cannot post new topics in this forum
You cannot reply to topics in this forum
You cannot edit your posts in this forum
You cannot delete your posts in this forum
You cannot vote in polls in this forum
You cannot attach files in this forum
You cannot download files in this forum