Убийства по пятницам / Серии: 1-4 из 4 (Карен Захаров) [2018, детектив, WEBRip 720p]


by Boris G ®
23-Dec-2018 15:23

[Quote]

Убийства по пятницам / Серии: 1-4 из 4 (Карен Захаров) [2018, детектив, WEBRip 720p]

Убийства по пятницам
Год выпуска: 2018
Производство: ТелеМастер
Жанр: детектив
Продолжительность: ~00:46:00 серия
Субтитры: нет
Режиссёр: Карен Захаров
В ролях: Антонина Дивина, Андрей Ильин, Тамара Акулова, Светлана Немоляева, Алёна Яковлева, Юрий Поляк, Константин Соловьёв, Александра Никифорова, Дмитрий Мазуров, Антонина Комиссарова, Олег Алмазов
Описание: Нина — ботаник. Не в смысле очков и синих чулок, а в самом прямом смысле. Когда городской ботанический сад, где она работала, закрыли, Нина и мечтать не могла, что ей улыбнется такая удача: Владимир Шелехов, бизнесмен, наследник старинного княжеского рода и большой оригинал, приглашает ее на работу в свою роскошную усадьбу вместо сбежавшего садовника. Усадьба — еще и живой музей, туристическая достопримечательность, куда приезжают люди со всей страны. А каждую пятницу для туристов открывается не только сад и несколько комнат с исторической обстановкой, но и весь дом. В одну из таких пятниц Нина становится свидетелем внезапной смерти хозяина усадьбы.

Реклама: Нет.
Кинопоиск
Все раздачи сериала
Sample
Качество: WEBRip 720p - Getty
Формат: MKV
Видео кодек: H.264
Аудио кодек: AC3
Видео: MPEG4 AVC Video, H264, 16:9, 1280x720, 25 fps, ~3200 kbps, 0.139 bit/pixel
Аудио: AC3 Dolby Digital, 48.0 kHz, 2/0 (L,R) ch, 192 kbps

MI

General
Unique ID : 215141625027256488785247277241346644617 (0xA1DAC5111D93CFCD9E370751A6255A89)
Complete name : D:\Ubiystva.po.pyatnicam.2018.WEB-DL.(720p).Getty\Ubiystva.po.pyatnicam.e01.2018.WEB-DL.(720p).Getty.mkv
Format : Matroska
Format version : Version 4 / Version 2
File size : 1.07 GiB
Duration : 46 min 56 s
Overall bit rate mode : Constant
Overall bit rate : 3 278 kb/s
Movie name : Ubiystva.po.pyatnicam.e01.2018.WEB-DL.(720p).Getty
Encoded date : UTC 2018-11-16 20:09:23
Writing application : mkvmerge v7.8.0 ('River Man') 32bit built on Mar 27 2015 16:18:02
Writing library : libebml v1.3.1 + libmatroska v1.4.2
Video
ID : 1
Format : AVC
Format/Info : Advanced Video Codec
Format profile : High@L4.1
Format settings : CABAC / 4 Ref Frames
Format settings, CABAC : Yes
Format settings, ReFrames : 4 frames
Codec ID : V_MPEG4/ISO/AVC
Duration : 46 min 56 s
Bit rate mode : Constant
Bit rate : 3 200 kb/s
Width : 1 280 pixels
Height : 720 pixels
Display aspect ratio : 16:9
Frame rate mode : Constant
Frame rate : 25.000 FPS
Color space : YUV
Chroma subsampling : 4:2:0
Bit depth : 8 bits
Scan type : Progressive
Bits/(Pixel*Frame) : 0.139
Stream size : 1.01 GiB (94%)
Default : Yes
Forced : No
Audio
ID : 2
Format : AC-3
Format/Info : Audio Coding 3
Codec ID : A_AC3
Duration : 46 min 56 s
Bit rate mode : Constant
Bit rate : 192 kb/s
Channel(s) : 2 channels
Channel positions : Front: L R
Sampling rate : 48.0 kHz
Frame rate : 31.250 FPS (1536 SPF)
Bit depth : 16 bits
Compression mode : Lossy
Stream size : 64.5 MiB (6%)
Service kind : Complete Main
Default : Yes
Forced : No

Скриншоты


Download

Download free and at maximum speed!

How to Download? · What is a torrent? · Ratings and Limitations




You cannot post new topics in this forum
You cannot reply to topics in this forum
You cannot edit your posts in this forum
You cannot delete your posts in this forum
You cannot vote in polls in this forum
You cannot attach files in this forum
You cannot download files in this forum