Подделка / Обман / The Fake / Saibi / Sa-i-bi (Ён Сан Хо) [Movie] [Без хардсаба] [RUS(int), KOR] [2013, триллер, драма, BDRip] [720p]


Размер:  1.5 GB   |    Зарегистрирован:  8 месяцев 7 дней   |    Скачан:  0 раз
Сидов:  1  [  0 KB/s  ]   Подробная статистика пиров
by lev99 ®
06-Дек-2017 12:18

[Цитировать]

Подделка / Обман / The Fake / Saibi / Sa-i-bi (Ён Сан Хо) [Movie] [Без хардсаба] [RUS(int), KOR] [2013, триллер, драма, BDRip] [720p]

Подделка / Обман / The Fake / Saibi / Sa-i-bi
Страна: Южная Корея
Год выпуска: 2013 г.
Жанр: триллер, драма
Тип: полнометражный фильм, 101 мин.
Режиссер: Ён Сан Хо
Перевод: двухголосная (женская & мужская) Persona99 & Molodoy
Описание: Деревня, в которой проживают главные герои, вскоре будет затоплена. Это произойдет из-за строительства плотины неподалеку. Власти обещают выдать всем жителям компенсацию и помочь с переездом. Свои надежды большинство жителей возлагают на местного деревенского пастора. Именно он вызывается организовать переезд людей в безопасное место. Однако у этого человека есть темное прошлое, которое он старательно прячет от своей паствы. Знает об этом только один из обитателей поселения, но его словам никто не хочет верить. Сможет ли раскрыть пастора-афериста тот, кого все считают обычным пьяницей?
- world-art - | - kinopoisk -
Возраст: 18+
Рейтинг MPAA: NC-17
Формат видео: MKV
Качество видео: BDRip
Тип релиза: Без хардсаба
Видео: x264@L4.1, 1280x692 (1,85:1), 23.976 fps, 1734 Kbps, 0.082 bit/pixel, 8 bit
Аудио: AAC, 192 Kbps, 48.0Hz, 2 ch Язык Русский (в составе контейнера) ; Озвучка: двухголосная (женская & мужская) Persona99 & Molodoy
Аудио 2: AAC, 192 Kbps, 48.0Hz, 2 ch; Язык Корейский ; Озвучка 2: Оригинальная
Cубтитры: нет (причина:нецензурность)

MediaInfo

Общее
Уникальный идентификатор : 224529988259278014805269738562390799414 (0xA8EAE71C9981B3478FE71AEF31BB3436)
Полное имя : \Saibi_750 lev99\Saibi_[ru]_[Persona99_Molodoy]_[lev99].mkv
Формат : Matroska
Версия формата : Version 4 / Version 2
Размер файла : 1,50 Гбайт
Продолжительность : 1 ч. 40 м.
Общий поток : 2121 Кбит/сек
Название фильма : Saibi 2013
Дата кодирования : UTC 2017-12-06 12:15:39
Программа кодирования : mkvmerge v18.0.0 ('Apricity') 64-bit
Библиотека кодирования : libebml v1.3.5 + libmatroska v1.4.8
Обложка : Yes
Attachments : cover.jpg
Видео
Идентификатор : 1
Формат : AVC
Формат/Информация : Advanced Video Codec
Профиль формата : High@L4.1
Настройки формата : CABAC / 9 Ref Frames
Параметр CABAC формата : Да
Параметр RefFrames формата : 9 кадров
Идентификатор кодека : V_MPEG4/ISO/AVC
Продолжительность : 1 ч. 40 м.
Битрейт : 1734 Кбит/сек
Ширина : 1280 пикселей
Высота : 692 пикселя
Соотношение сторон : 1,85:1
Режим частоты кадров : Постоянный
Частота кадров : 23,976 (24000/1001) кадра/сек
Цветовое пространство : YUV
Субдискретизация насыщенности : 4:2:0
Битовая глубина : 8 бит
Тип развёртки : Прогрессивная
Бит/(Пиксели*Кадры) : 0.082
Размер потока : 1,22 Гбайт (82%)
Библиотека кодирования : x264 core 142 r2431+42 c69a006 tMod [8-bit@all X86_64]
Настройки программы : cabac=1 / ref=9 / deblock=1:-3:-3 / analyse=0x3:0x113 / me=umh / subme=10 / psy=1 / fade_compensate=0.00 / psy_rd=1.00:0.00 / mixed_ref=1 / me_range=32 / chroma_me=1 / trellis=2 / 8x8dct=1 / cqm=0 / deadzone=21,11 / fast_pskip=0 / chroma_qp_offset=-2 / threads=4 / lookahead_threads=1 / sliced_threads=0 / nr=0 / decimate=0 / interlaced=0 / bluray_compat=0 / constrained_intra=0 / fgo=0 / bframes=13 / b_pyramid=2 / b_adapt=2 / b_bias=0 / direct=3 / weightb=1 / open_gop=0 / weightp=2 / keyint=250 / keyint_min=23 / scenecut=40 / intra_refresh=0 / rc_lookahead=60 / rc=crf / mbtree=0 / crf=16.8000 / qcomp=0.60 / qpmin=0:0:0 / qpmax=69:69:69 / qpstep=4 / vbv_maxrate=38000 / vbv_bufsize=32000 / crf_max=0.0 / nal_hrd=none / filler=0 / ip_ratio=1.40 / pb_ratio=1.30 / aq=1:0.90 / aq-sensitivity=10.00 / aq-factor=1.00:1.00:1.00 / aq2=0 / aq3=0
Язык : Korean
Default : Да
Forced : Нет
Аудио #1
Идентификатор : 2
Формат : AAC
Формат/Информация : Advanced Audio Codec
Профиль формата : LC
Идентификатор кодека : A_AAC-2
Продолжительность : 1 ч. 40 м.
Битрейт : 192 Кбит/сек
Каналы : 2 канала
Расположение каналов : Front: L R
Частота : 48,0 КГц
Частота кадров : 46,875 кадров/сек (1024 SPF)
Метод сжатия : С потерями
Задержка видео : 21 мс.
Размер потока : 139 Мбайт (9%)
Заголовок : Persona99 & Molodoy
Язык : Russian
Default : Да
Forced : Нет
Аудио #2
Идентификатор : 3
Формат : AAC
Формат/Информация : Advanced Audio Codec
Профиль формата : LC
Идентификатор кодека : A_AAC-2
Продолжительность : 1 ч. 40 м.
Битрейт : 192 Кбит/сек
Каналы : 2 канала
Расположение каналов : Front: L R
Частота : 48,0 КГц
Частота кадров : 46,875 кадров/сек (1024 SPF)
Метод сжатия : С потерями
Задержка видео : 21 мс.
Размер потока : 139 Мбайт (9%)
Язык : Korean
Default : Нет
Forced : Нет

Скриншоты




Вы не можете начинать темы
Вы не можете отвечать на сообщения
Вы не можете редактировать свои сообщения
Вы не можете удалять свои сообщения
Вы не можете голосовать в опросах
Вы не можете прикреплять файлы к сообщениям
Вы можете скачивать файлы