Чёрный ворон / Серии: 1-64 из 64 (Борис Горлов, Андрей Кравчук, Игорь Москвитин) [2001-2004, драма, криминальный фильм, мелодрама, мистика, экранизация, WEBRip-AVC]


by Boris G ®
23-Дек-2018 15:23

[Цитировать]

Чёрный ворон / Серии: 1-64 из 64 (Борис Горлов, Андрей Кравчук, Игорь Москвитин) [2001-2004, драма, криминальный фильм, мелодрама, мистика, экранизация, WEBRip-AVC]

Чёрный ворон
Год выпуска: 2001-2004
Производство: Новый русский сериал, Пан Терра, Дельфин
Жанр: драма, криминальный фильм, мелодрама, мистика, экранизация
Продолжительность: 64 x ~ 00:45:00
Субтитры: Нет
Режиссёр: Борис Горлов, Андрей Кравчук, Игорь Москвитин
В ролях: Татьяна Колганова, Анна Герм, Анна Самохина, Татьяна Ткач, Ярослав Иванов, Борис Соколов, Евгений Дятлов, Игорь Копылов, Ольга Самошина, Борис Бирман, Алексей Федотов, Юлия Горшенина, Александр Романцов, Валерий Уваров, Ирина Ракшина, Юрий Гальцев, Юлия Джербинова, Евгений Александров, Ольга Онищенко, Александр Маслов, Наталья Иохвидова, Максим Сергеев, Денис Синявский, Татьяна Полонская, Валентина Касьянова, Захар Ронжин, Виктор Кравец, Александр Есаулов, Александр Карпухов, Светлана Киреева, Анна Екатерининская, Юлия Шубарева, Светлана Соловьева, Павел Денисов, Дмитрий Пантелеев, Александр Малышев (II), Лариса Малеванная, Олег Огий, Аркадий Волгин, Оксана Семёнова, Тамара Шемпель, Анна Королёва, Ян Цапник, Виктор Смирнов, Роман Павлушев, Эра Зиганшина, Евгений Филатов, Андрей Ургант, Наталья Круглова, Даниил Лапигин, Людмила Гвоздикова, Наталья Лыжина, Владимир Борчанинов, Роман Рязанцев, Марина Соловцева, Семён Фурман, Юрий Орлов (II), Сурен Вартанов, Александр Саюталин, Андрей Астраханцев, Евгений Меркурьев, Анна Злоказова, Роман Жилкин, Константин Бутаев, Сергей Волкош, Вадим Лобанов, Влада Макейчик, Беата Маковская, Николай Буров, Дмитрий Барков
Описание: Экранизация романов Дмитрия Вересова: "Чёрный ворон", "Гнездо ворона", "Полёт ворона".
"Черный ворон" - это эпическая история со сквозным сюжетом, охватывающая более полувека - от 1940-х годов до наших дней. Речь идет о судьбе двух женщин, носящих одно имя - Татьяна - и рожденных от одного отца. Женщины не знакомы друг с другом и не подозревают о своем родстве. Однако их встреча предопределена… Началась эта история в тот день, когда в Ленинград в конце сороковых вернулся Алексей Захаржевский. Он родился и вырос в Китае, прошел лагеря и был реабилитирован. Алексей приехал погостить к своему дяде - академику Захаржевскому. Академик встретил племянника вместе со своей молодой женой Адой. В семье академика живет и мать Ады, Анна Давыдовна, потомственная ведьма. В первый же вечер женщины стали приглядываться к Алексею. Для передачи колдовского ремесла им нужна была девочка-наследница. Карты предсказали, что именно Алексей должен стать отцом будущей колдуньи...
Реклама: Нет
Сэмпл: http://multi-up.com/1214072
Качество: WEBRip-AVC
Формат: MKV
Видео кодек: H.264
Аудио кодек: AC3
Видео: MPEG-4 (AVC), 720x416, 25 fps, ~ 1600 kbps, 0.22 bit/pixel
Аудио: AC3, 48.0 kHz, 2 ch, 192 Kbps

MI

General
Unique ID : 231607978740557636830350674372619288406 (0xAE3E12FC403F13C4A288C8AE1C863F56)
Complete name : Чёрный ворон (01 сер.).mkv
Format : Matroska
Format version : Version 2
File size : 591 MiB
Duration : 43 min 43 s
Overall bit rate : 1 891 kb/s
Encoded date : UTC 2018-04-16 09:22:26
Writing application : mkvmerge v7.8.0 ('River Man') 32bit built on Apr 3 2015 12:11:22
Writing library : libebml v1.3.1 + libmatroska v1.4.2
Video
ID : 1
Format : AVC
Format/Info : Advanced Video Codec
Format profile : High@L3
Format settings : CABAC / 6 Ref Frames
Format settings, CABAC : Yes
Format settings, ReFrames : 6 frames
Format settings, GOP : M=1, N=2
Codec ID : V_MPEG4/ISO/AVC
Duration : 43 min 43 s
Bit rate : 1 698 kb/s
Nominal bit rate : 1 600 kb/s
Width : 720 pixels
Height : 416 pixels
Display aspect ratio : 1.731
Frame rate mode : Constant
Frame rate : 25.000 FPS
Color space : YUV
Chroma subsampling : 4:2:0
Bit depth : 8 bits
Scan type : Progressive
Bits/(Pixel*Frame) : 0.227
Stream size : 531 MiB (90%)
Writing library : x264 core 152 r2851 ba24899
Encoding settings : cabac=1 / ref=6 / deblock=1:0:0 / analyse=0x3:0x113 / me=umh / subme=8 / psy=1 / psy_rd=1.00:0.00 / mixed_ref=1 / me_range=24 / chroma_me=1 / trellis=1 / 8x8dct=1 / cqm=0 / deadzone=21,11 / fast_pskip=1 / chroma_qp_offset=-2 / threads=8 / lookahead_threads=1 / sliced_threads=0 / nr=0 / decimate=1 / interlaced=0 / bluray_compat=0 / stitchable=1 / constrained_intra=0 / bframes=6 / b_pyramid=2 / b_adapt=1 / b_bias=0 / direct=3 / weightb=1 / open_gop=0 / weightp=2 / keyint=250 / keyint_min=25 / scenecut=40 / intra_refresh=0 / rc_lookahead=40 / rc=2pass / mbtree=1 / bitrate=1600 / ratetol=1.0 / qcomp=0.60 / qpmin=0 / qpmax=69 / qpstep=4 / cplxblur=20.0 / qblur=0.5 / ip_ratio=1.40 / aq=1:1.00
Default : Yes
Forced : No
Audio
ID : 2
Format : AC-3
Format/Info : Audio Coding 3
Commercial name : Dolby Digital
Codec ID : A_AC3
Duration : 43 min 43 s
Bit rate mode : Constant
Bit rate : 192 kb/s
Channel(s) : 2 channels
Channel layout : L R
Sampling rate : 48.0 kHz
Frame rate : 31.250 FPS (1536 SPF)
Bit depth : 16 bits
Compression mode : Lossy
Stream size : 60.0 MiB (10%)
Service kind : Complete Main
Default : Yes
Forced : No

Скриншоты

Предыдущие и альтернативные раздачи
Скачать

Скачать бесплатно и на максимальной скорости!

Как скачивать? · Что такое торрент? · Рейтинг и ограничения




Вы не можете начинать темы
Вы не можете отвечать на сообщения
Вы не можете редактировать свои сообщения
Вы не можете удалять свои сообщения
Вы не можете голосовать в опросах
Вы не можете прикреплять файлы к сообщениям
Вы не можете скачивать файлы