Ненастье / Серии: 1-11 из 11 (Сергей Урсуляк) [2018, драма, экранизация, HDTVRip 720p]


by Boris G ®
23-Дек-2018 15:23

[Цитировать]

Ненастье / Серии: 1-11 из 11 (Сергей Урсуляк) [2018, драма, экранизация, HDTVRip 720p]

Ненастье
Год выпуска: 2018
Производство: Москино
Жанр: драма, экранизация
Продолжительность: ~00:50:00 серия
Субтитры: нет
Режиссёр: Сергей Урсуляк
В ролях: Александр Яценко, Александр Горбатов, Татьяна Лялина, Сергей Маковецкий, Александр Голубев, Антон Филипенко, Олег Байкулов, Павел Ворожцов, Серафима Красникова, Сослан Фидаров, Евгений Смирнов-Иваницкий, Олег Кассин, Тарас Епифанцев, Алексей Дякин, Никита Тезов, Александр Кузнецов, Максим Деричев, Татьяна Сомова, Иван Куколев, Валерий Карпов, Дмитрий Куличков, Александр Матросов
Описание: По роману Алексея Иванова.
90-е. Время больших перемен. Крушение иллюзий. Сломанные судьбы. Несбывшиеся мечты. И любовь... Любовь вопреки всему.
Они вернулись в свою страну после Афганистана, но страна стала совсем другой.
Они рассчитывают только на себя. Они доверяют только друг другу.
В одном из уральских городов совершено дерзкое ограбление! Похищены 140 миллионов рублей!
Грабитель – бывший «афганец» Герман Неволин, водитель инкассаторской машины. Что толкнуло его на преступление? Почему он принёс в жертву всё, чем дорожил – дружбу, любовь, и теперь вынужден скрываться в заброшенной деревушке Ненастье?..

Реклама: Нет.
Кинопоиск
Все раздачи сериала
Sample
Качество: HDTVRip 720p - Nikolspup
Формат: MKV
Видео кодек: H.264
Аудио кодек: AC3
Видео: MPEG4 AVC Video, H264, 16:9, 1280x720, 25 fps, ~4000 kbps, 0.174 bit/pixel
Аудио: AC3 Dolby Digital, 48 kHz, 2/0 (L,R) ch, 192 kbp

Внимание! Раздача ведётся путём добавления новых серий

Раздача ведётся путём добавления новых серий, при каждом добавлении создаётся новый торрент. Чтобы начать докачку новой серии, пользователям необходимо сделать следующее:
- Остановить скачивание.
- Удалить старый торрент у себя из клиента (старые серии удалять не надо).
- Скачать новый торрент и запустить его у себя в клиенте вместо старого, при этом указать клиенту путь в старую папку куда и должно происходить скачивание новых серий.
Ваш клиент при этом должен произвести хеширование (проверку) старой папки (если не производит сам - помогите ему сделать это), и будет докачивать только те серии которых у вас ещё нет. Старые серии при этом не удаляются, а продолжают раздаваться!
Если вы уже удалили старые серии, то предотвратить повторную закачку старых серий можно, отжав галочку в соответствующих местах при запуске нового торрента. По возможности, желательно не удалять старые серии как можно дольше, чтобы релизер не столько продолжал раздавать старые серии, а смог сконцентрироваться на новых.

MI

General
Unique ID : 214458108144994335594046759138367782937 (0xA15721152C03DE3F99B07CFDA3D24019)
Complete name : D:\Nenaste.2018.HDTVRip.(720p).Nikolspup\Nenaste.(01.seriya.iz.11).2018.HDTVRip.(720p).Nikolspup.mkv
Format : Matroska
Format version : Version 4 / Version 2
File size : 1.34 GiB
Duration : 45 min 43 s
Overall bit rate : 4 193 kb/s
Encoded date : UTC 2018-11-13 02:22:32
Writing application : mkvmerge v7.8.0 ('River Man') 32bit built on Mar 27 2015 16:18:02
Writing library : libebml v1.3.1 + libmatroska v1.4.2
Video
ID : 1
Format : AVC
Format/Info : Advanced Video Codec
Format profile : High@L4.1
Format settings : CABAC / 9 Ref Frames
Format settings, CABAC : Yes
Format settings, ReFrames : 9 frames
Codec ID : V_MPEG4/ISO/AVC
Duration : 45 min 43 s
Bit rate : 4 000 kb/s
Width : 1 280 pixels
Height : 720 pixels
Display aspect ratio : 16:9
Frame rate mode : Constant
Frame rate : 25.000 FPS
Color space : YUV
Chroma subsampling : 4:2:0
Bit depth : 8 bits
Scan type : Progressive
Bits/(Pixel*Frame) : 0.174
Stream size : 1.28 GiB (95%)
Writing library : x264 core 146 r2538 121396c
Encoding settings : cabac=1 / ref=9 / deblock=1:-2:-1 / analyse=0x3:0x133 / me=umh / subme=9 / psy=1 / psy_rd=1.00:0.20 / mixed_ref=1 / me_range=32 / chroma_me=1 / trellis=2 / 8x8dct=1 / cqm=0 / deadzone=21,11 / fast_pskip=1 / chroma_qp_offset=-3 / threads=16 / lookahead_threads=8 / sliced_threads=0 / nr=0 / decimate=1 / interlaced=0 / bluray_compat=0 / constrained_intra=0 / bframes=11 / b_pyramid=2 / b_adapt=2 / b_bias=0 / direct=1 / weightb=1 / open_gop=0 / weightp=2 / keyint=250 / keyint_min=25 / scenecut=40 / intra_refresh=0 / rc=2pass / mbtree=0 / bitrate=4000 / ratetol=1.0 / qcomp=0.60 / qpmin=0 / qpmax=69 / qpstep=4 / cplxblur=20.0 / qblur=0.5 / ip_ratio=1.40 / pb_ratio=1.30 / aq=3:1.00
Default : No
Forced : No
Color range : Limited
Color primaries : BT.709
Transfer characteristics : BT.709
Matrix coefficients : BT.709
Audio
ID : 2
Format : AC-3
Format/Info : Audio Coding 3
Codec ID : A_AC3
Duration : 45 min 43 s
Bit rate mode : Constant
Bit rate : 192 kb/s
Channel(s) : 2 channels
Channel positions : Front: L R
Sampling rate : 48.0 kHz
Frame rate : 31.250 FPS (1536 SPF)
Bit depth : 16 bits
Compression mode : Lossy
Stream size : 62.8 MiB (5%)
Language : Russian
Service kind : Complete Main
Default : Yes
Forced : Yes

Скриншоты


Скачать

Скачать бесплатно и на максимальной скорости!

Как скачивать? · Что такое торрент? · Рейтинг и ограничения




Вы не можете начинать темы
Вы не можете отвечать на сообщения
Вы не можете редактировать свои сообщения
Вы не можете удалять свои сообщения
Вы не можете голосовать в опросах
Вы не можете прикреплять файлы к сообщениям
Вы не можете скачивать файлы