Ненастье / Серии: 1-11 из 11 (Сергей Урсуляк) [2018, драма, экранизация, HDTVRip]


by Boris G ®
23-Dec-2018 15:23

[Quote]

Ненастье / Серии: 1-11 из 11 (Сергей Урсуляк) [2018, драма, экранизация, HDTVRip]

Ненастье
Год выпуска: 2018
Производство: Москино
Жанр: драма, экранизация
Продолжительность: ~00:50:00 серия
Субтитры: нет
Режиссёр: Сергей Урсуляк
В ролях: Александр Яценко, Александр Горбатов, Татьяна Лялина, Сергей Маковецкий, Александр Голубев, Антон Филипенко, Олег Байкулов, Павел Ворожцов, Серафима Красникова, Сослан Фидаров, Евгений Смирнов-Иваницкий, Олег Кассин, Тарас Епифанцев, Алексей Дякин, Никита Тезов, Александр Кузнецов, Максим Деричев, Татьяна Сомова, Иван Куколев, Валерий Карпов, Дмитрий Куличков, Александр Матросов
Описание: По роману Алексея Иванова.
90-е. Время больших перемен. Крушение иллюзий. Сломанные судьбы. Несбывшиеся мечты. И любовь... Любовь вопреки всему.
Они вернулись в свою страну после Афганистана, но страна стала совсем другой.
Они рассчитывают только на себя. Они доверяют только друг другу.
В одном из уральских городов совершено дерзкое ограбление! Похищены 140 миллионов рублей!
Грабитель – бывший «афганец» Герман Неволин, водитель инкассаторской машины. Что толкнуло его на преступление? Почему он принёс в жертву всё, чем дорожил – дружбу, любовь, и теперь вынужден скрываться в заброшенной деревушке Ненастье?..

Реклама: Нет.
Кинопоиск
Все раздачи сериала
Sample
Качество: HDTVRip - Files-x
Формат: AVI
Видео кодек: XviD
Аудио кодек: AC3
Видео: 720x400 (1.80:1), 25 fps, XviD build 73 ~1500 kbps avg, 0.208 bit/pixel
Аудио: 48.0 kHz, AC3 Dolby Digital, 2/0 (L,R) ch, ~ 192 kbps

Внимание! Раздача ведётся путём добавления новых серий

Раздача ведётся путём добавления новых серий, при каждом добавлении создаётся новый торрент. Чтобы начать докачку новой серии, пользователям необходимо сделать следующее:
- Остановить скачивание.
- Удалить старый торрент у себя из клиента (старые серии удалять не надо).
- Скачать новый торрент и запустить его у себя в клиенте вместо старого, при этом указать клиенту путь в старую папку куда и должно происходить скачивание новых серий.
Ваш клиент при этом должен произвести хеширование (проверку) старой папки (если не производит сам - помогите ему сделать это), и будет докачивать только те серии которых у вас ещё нет. Старые серии при этом не удаляются, а продолжают раздаваться!
Если вы уже удалили старые серии, то предотвратить повторную закачку старых серий можно, отжав галочку в соответствующих местах при запуске нового торрента. По возможности, желательно не удалять старые серии как можно дольше, чтобы релизер не столько продолжал раздавать старые серии, а смог сконцентрироваться на новых.

MI

General
Complete name : D:\Ненастье.2018 .HDTVip.Files-x\01.Ненастье.2018 .HDTVip.Files-x.avi
Format : AVI
Format/Info : Audio Video Interleave
File size : 555 MiB
Duration : 45 min 41 s
Overall bit rate : 1 699 kb/s
Writing application : VirtualDubMod 1.5.10.3 | www.virtualdub-fr.org || (build 2550/release)
Writing library : VirtualDubMod build 2550/release
Video
ID : 0
Format : MPEG-4 Visual
Format profile : Advanced Simple@L5
Format settings : BVOP1 / Custom Matrix
Format settings, BVOP : 1
Format settings, QPel : No
Format settings, GMC : No warppoints
Format settings, Matrix : Custom
Codec ID : XVID
Codec ID/Hint : XviD
Duration : 45 min 41 s
Bit rate : 1 497 kb/s
Width : 720 pixels
Height : 400 pixels
Display aspect ratio : 16:9
Frame rate : 25.000 FPS
Color space : YUV
Chroma subsampling : 4:2:0
Bit depth : 8 bits
Scan type : Progressive
Compression mode : Lossy
Bits/(Pixel*Frame) : 0.208
Stream size : 489 MiB (88%)
Writing library : XviD 73
Audio
ID : 1
Format : AC-3
Format/Info : Audio Coding 3
Codec ID : 2000
Duration : 45 min 41 s
Bit rate mode : Constant
Bit rate : 192 kb/s
Channel(s) : 2 channels
Channel positions : Front: L R
Sampling rate : 48.0 kHz
Frame rate : 31.250 FPS (1536 SPF)
Bit depth : 16 bits
Compression mode : Lossy
Stream size : 62.8 MiB (11%)
Alignment : Split accross interleaves
Interleave, duration : 40 ms (1.00 video frame)
Interleave, preload duratio : 500 ms
Service kind : Complete Main

Скриншоты


Download

Download free and at maximum speed!

How to Download? · What is a torrent? · Ratings and Limitations




You cannot post new topics in this forum
You cannot reply to topics in this forum
You cannot edit your posts in this forum
You cannot delete your posts in this forum
You cannot vote in polls in this forum
You cannot attach files in this forum
You cannot download files in this forum