Ненастье / Серии: 1-11 из 11 (Сергей Урсуляк) [2018, драма, экранизация, HDTV 1080i]


by Boris G ®
23-Дек-2018 15:23

[Цитировать]

Ненастье / Серии: 1-11 из 11 (Сергей Урсуляк) [2018, драма, экранизация, HDTV 1080i]

Ненастье
Год выпуска: 2018
Производство: Москино
Жанр: драма, экранизация
Продолжительность: ~00:50:00 серия
Субтитры: нет
Режиссёр: Сергей Урсуляк
В ролях: Александр Яценко, Александр Горбатов, Татьяна Лялина, Сергей Маковецкий, Александр Голубев, Антон Филипенко, Олег Байкулов, Павел Ворожцов, Серафима Красникова, Сослан Фидаров, Евгений Смирнов-Иваницкий, Олег Кассин, Тарас Епифанцев, Алексей Дякин, Никита Тезов, Александр Кузнецов, Максим Деричев, Татьяна Сомова, Иван Куколев, Валерий Карпов, Дмитрий Куличков, Александр Матросов
Описание: По роману Алексея Иванова.
90-е. Время больших перемен. Крушение иллюзий. Сломанные судьбы. Несбывшиеся мечты. И любовь... Любовь вопреки всему.
Они вернулись в свою страну после Афганистана, но страна стала совсем другой.
Они рассчитывают только на себя. Они доверяют только друг другу.
В одном из уральских городов совершено дерзкое ограбление! Похищены 140 миллионов рублей!
Грабитель – бывший «афганец» Герман Неволин, водитель инкассаторской машины. Что толкнуло его на преступление? Почему он принёс в жертву всё, чем дорожил – дружбу, любовь, и теперь вынужден скрываться в заброшенной деревушке Ненастье?..

Реклама: Нет.
Кинопоиск
Все раздачи сериала
Sample
Качество: HDTV 1080i - daboen
Формат: TS
Видео кодек: AVC
Аудио кодек: MP2
Видео: MPEG4 AVC Video, H264, 16:9, 1920x1080, 25 fps, ~7070 kbps, 0.136 bit/pixel
Аудио: MP2, 2 ch, 192 kbps, 16 bits, 48.0 KHz

Внимание! Раздача ведётся путём добавления новых серий

Раздача ведётся путём добавления новых серий, при каждом добавлении создаётся новый торрент. Чтобы начать докачку новой серии, пользователям необходимо сделать следующее:
- Остановить скачивание.
- Удалить старый торрент у себя из клиента (старые серии удалять не надо).
- Скачать новый торрент и запустить его у себя в клиенте вместо старого, при этом указать клиенту путь в старую папку куда и должно происходить скачивание новых серий.
Ваш клиент при этом должен произвести хеширование (проверку) старой папки (если не производит сам - помогите ему сделать это), и будет докачивать только те серии которых у вас ещё нет. Старые серии при этом не удаляются, а продолжают раздаваться!
Если вы уже удалили старые серии, то предотвратить повторную закачку старых серий можно, отжав галочку в соответствующих местах при запуске нового торрента. По возможности, желательно не удалять старые серии как можно дольше, чтобы релизер не столько продолжал раздавать старые серии, а смог сконцентрироваться на новых.

MI

General
ID : 1 (0x1)
Complete name : D:\Nenast'e.2018.HDTV.1080i\Nenast'e.01.2018.HDTV.1080i.ts
Format : MPEG-TS
File size : 2.44 GiB
Duration : 45 min 43 s
Overall bit rate mode : Variable
Overall bit rate : 7 645 kb/s
Video
ID : 2911 (0xB5F)
Menu ID : 1192 (0x4A8)
Format : AVC
Format/Info : Advanced Video Codec
Format profile : High@L4
Format settings : CABAC / 4 Ref Frames
Format settings, CABAC : Yes
Format settings, ReFrames : 4 frames
Codec ID : 27
Duration : 45 min 43 s
Bit rate : 7 074 kb/s
Width : 1 920 pixels
Height : 1 080 pixels
Display aspect ratio : 16:9
Frame rate : 25.000 FPS
Color space : YUV
Chroma subsampling : 4:2:0
Bit depth : 8 bits
Scan type : MBAFF
Scan type, store method : Interleaved fields
Scan order : Top Field First
Bits/(Pixel*Frame) : 0.136
Stream size : 2.26 GiB (93%)
Audio
ID : 2912 (0xB60)
Menu ID : 1192 (0x4A8)
Format : MPEG Audio
Format version : Version 1
Format profile : Layer 2
Format settings : Joint stereo / Intensity Stereo + MS Stereo
Codec ID : 3
Duration : 45 min 43 s
Bit rate mode : Constant
Bit rate : 192 kb/s
Channel(s) : 2 channels
Sampling rate : 48.0 kHz
Frame rate : 41.667 FPS (1152 SPF)
Compression mode : Lossy
Stream size : 62.8 MiB (3%)
Language : Russian

Скриншоты


Скачать

Скачать бесплатно и на максимальной скорости!

Как скачивать? · Что такое торрент? · Рейтинг и ограничения




Вы не можете начинать темы
Вы не можете отвечать на сообщения
Вы не можете редактировать свои сообщения
Вы не можете удалять свои сообщения
Вы не можете голосовать в опросах
Вы не можете прикреплять файлы к сообщениям
Вы не можете скачивать файлы