Купчино / Серии: 1-20 из 20 (Армен Назикян) [2018, детектив, криминал, WEBRip 1080p]


by Boris G ®
23-Dec-2018 15:23

[Quote]

Купчино / Серии: 1-20 из 20 (Армен Назикян) [2018, детектив, криминал, WEBRip 1080p]

Купчино
Год выпуска: 2018
Производство: Триикс Медиа
Жанр: детектив, криминал
Продолжительность: ~00:51:00 серия
Субтитры: нет
Режиссёр: Армен Назикян
В ролях: Григорий Некрасов, Алексей Кравченко, Денис Пьянов, Иван Решетняк, Роман Агеев, Вячеслав Аркунов, Елизавета Александрова, Алексей Одинг, Дмитрий Лебедев, Алексей Красноцветов, Егор Шмыга, Екатерина Панасюк, Пётр Харченко, Степан Пивкин, Тина Тарусина, Евгений Лямин, Мария Цветкова, Василий Башмаков, Денис Моисеев, Лора Коробских, Александр Клемантович
Описание: Опытный участковый Василич служит в милиции по убеждениям. А его напарника — молодого рокера Федю — родители запихнули в «ментовку», чтобы временно спрятать от угрозы преследования за участие сына в подпольной рок-группе. Сторонник твёрдой руки, верящий в советские идеалы человек старой закалки и циничный к идеалам отцов молодой хам поначалу ненавидят друг друга, но потом проникаются взаимной симпатией. И в расследованиях там, где бессильна дедукция и следовательский опыт Василича, приходят на помощь знания Феди о новой зарождающейся жизни, где будут править те, кого сейчас сажают за нетрудовые доходы.

Реклама: Нет.
Кинопоиск
Все раздачи сериала
Sample
Качество: WEBRip 1080p - Nikolspup
Формат: MKV
Видео кодек: H.264
Аудио кодек: AC3
Видео: MPEG4 AVC Video, H264, 16:9, 1920x1080, 25 fps, ~6000 kbps, 0.116 bit/pixel
Аудио: AC3 Dolby Digital, 48.0 kHz, 2/0 (L,R) ch, 192 kbps

Внимание! Раздача ведётся путём добавления новых серий

Раздача ведётся путём добавления новых серий, при каждом добавлении создаётся новый торрент. Чтобы начать докачку новой серии, пользователям необходимо сделать следующее:
- Остановить скачивание.
- Удалить старый торрент у себя из клиента (старые серии удалять не надо).
- Скачать новый торрент и запустить его у себя в клиенте вместо старого, при этом указать клиенту путь в старую папку куда и должно происходить скачивание новых серий.
Ваш клиент при этом должен произвести хеширование (проверку) старой папки (если не производит сам - помогите ему сделать это), и будет докачивать только те серии которых у вас ещё нет. Старые серии при этом не удаляются, а продолжают раздаваться!
Если вы уже удалили старые серии, то предотвратить повторную закачку старых серий можно, отжав галочку в соответствующих местах при запуске нового торрента. По возможности, желательно не удалять старые серии как можно дольше, чтобы релизер не столько продолжал раздавать старые серии, а смог сконцентрироваться на новых.

MI

General
Unique ID : 237443084263240396330774388230316807338 (0xB2A1DFE63EF35B60B57039FC88AED4AA)
Complete name : D:\Kupchino.2018.WEB-DL.(1080p).Nikolspup\Kupchino.2018.(01.seriya).2018.WEB-DL.(1080p).Nikolspup.mkv
Format : Matroska
Format version : Version 4 / Version 2
File size : 2.20 GiB
Duration : 51 min 4 s
Overall bit rate mode : Constant
Overall bit rate : 6 169 kb/s
Encoded date : UTC 2018-11-12 19:10:59
Writing application : mkvmerge v7.8.0 ('River Man') 32bit built on Mar 27 2015 16:18:02
Writing library : libebml v1.3.1 + libmatroska v1.4.2
Video
ID : 1
Format : AVC
Format/Info : Advanced Video Codec
Format profile : High@L4.1
Format settings : 2 Ref Frames
Format settings, CABAC : No
Format settings, ReFrames : 2 frames
Codec ID : V_MPEG4/ISO/AVC
Duration : 51 min 4 s
Bit rate mode : Constant
Bit rate : 6 000 kb/s
Width : 1 920 pixels
Height : 1 080 pixels
Display aspect ratio : 16:9
Frame rate mode : Constant
Frame rate : 25.000 FPS
Standard : PAL
Color space : YUV
Chroma subsampling : 4:2:0
Bit depth : 8 bits
Scan type : Progressive
Bits/(Pixel*Frame) : 0.116
Stream size : 2.13 GiB (97%)
Default : Yes
Forced : No
Color range : Limited
Color primaries : BT.709
Transfer characteristics : BT.709
Matrix coefficients : BT.709
Audio
ID : 2
Format : AC-3
Format/Info : Audio Coding 3
Codec ID : A_AC3
Duration : 51 min 4 s
Bit rate mode : Constant
Bit rate : 192 kb/s
Channel(s) : 2 channels
Channel positions : Front: L R
Sampling rate : 48.0 kHz
Frame rate : 31.250 FPS (1536 SPF)
Bit depth : 16 bits
Compression mode : Lossy
Stream size : 70.1 MiB (3%)
Language : Russian
Service kind : Complete Main
Default : Yes
Forced : No

Скриншоты


Download

Download free and at maximum speed!

How to Download? · What is a torrent? · Ratings and Limitations




You cannot post new topics in this forum
You cannot reply to topics in this forum
You cannot edit your posts in this forum
You cannot delete your posts in this forum
You cannot vote in polls in this forum
You cannot attach files in this forum
You cannot download files in this forum