Купель дьявола / Серии: 1-4 из 4 (Александра Бутько) [2018, детектив, мистика, экранизация, WEBRip]


by Boris G ®
23-Дек-2018 15:23

[Цитировать]

Купель дьявола / Серии: 1-4 из 4 (Александра Бутько) [2018, детектив, мистика, экранизация, WEBRip]

Купель дьявола
Год выпуска: 2018
Производство: Феникс-фильм
Жанр: детектив, мистика, экранизация
Продолжительность: ~00:43:00 серия
Субтитры: нет
Режиссёр: Александра Бутько
В ролях: Полина Толстун, Кирилл Жандаров, Евгения Игумнова, Илья Носков, Людмила Чурсина, Борис Хвошнянский, Анвар Либабов, Леонид Вахонин, Александр Большаков, Владимир Крылов, Алексей Фролов, Егор Лесников, Екатерина Рудакова, Леонид Королёв, Алексей Удальцов, Владимир Норенко, Наталья Щербакова, Юлия Зоркина, Мария Жильченко, Валерия Варченко, Яков Петров, Мария Минакова
Описание: По детективному роману Виктории Платовой.
Катя Соловьёва неожиданно для себя становится владелицей картины легендарного мастера Северного Возрождения. История полотна полна тайн и мифов, главный из которых заключён в том, что "картина убивает". И после череды неожиданных смертей именно Кате придётся разобраться, с чем она имеет дело: с мистикой, роком или хорошо спланированным преступлением.

Реклама: Нет.
Кино-театр
Все раздачи сериала
Sample
Качество: WEBRip
Формат: AVI
Видео кодек: XviD
Аудио кодек: AC3
Видео: 720x400 (1.80:1), 25 fps, XviD ~1690 kbps avg, 0.235 bit/pixel
Аудио: 48.0 kHz, AC3 Dolby Digital, 2/0 (L,R) ch, ~ 192 kbps

MI

General
Complete name : D:\Купель дьявола 2018 WEB-DLRip\01.Купель дьявола.2018.WEB-DLRip.avi
Format : AVI
Format/Info : Audio Video Interleave
File size : 593 MiB
Duration : 43 min 50 s
Overall bit rate : 1 892 kb/s
Writing application : VirtualDubMod 1.5.10.3 | www.virtualdub-fr.org || (build 2550/release)
Writing library : VirtualDubMod build 2550/release
Video
ID : 0
Format : MPEG-4 Visual
Format profile : Advanced Simple@L5
Format settings : BVOP1
Format settings, BVOP : 1
Format settings, QPel : No
Format settings, GMC : No warppoints
Format settings, Matrix : Default (MPEG)
Codec ID : XVID
Codec ID/Hint : XviD
Duration : 43 min 50 s
Bit rate : 1 690 kb/s
Width : 720 pixels
Height : 400 pixels
Display aspect ratio : 16:9
Frame rate : 25.000 FPS
Color space : YUV
Chroma subsampling : 4:2:0
Bit depth : 8 bits
Scan type : Progressive
Compression mode : Lossy
Bits/(Pixel*Frame) : 0.235
Stream size : 530 MiB (89%)
Writing library : XviD 73
Audio
ID : 1
Format : AC-3
Format/Info : Audio Coding 3
Codec ID : 2000
Duration : 43 min 50 s
Bit rate mode : Constant
Bit rate : 192 kb/s
Channel(s) : 2 channels
Channel positions : Front: L R
Sampling rate : 48.0 kHz
Frame rate : 31.250 FPS (1536 SPF)
Bit depth : 16 bits
Compression mode : Lossy
Stream size : 60.2 MiB (10%)
Alignment : Split accross interleaves
Interleave, duration : 40 ms (1.00 video frame)
Interleave, preload duratio : 500 ms
Service kind : Complete Main

Скриншоты


Скачать

Скачать бесплатно и на максимальной скорости!

Как скачивать? · Что такое торрент? · Рейтинг и ограничения




Вы не можете начинать темы
Вы не можете отвечать на сообщения
Вы не можете редактировать свои сообщения
Вы не можете удалять свои сообщения
Вы не можете голосовать в опросах
Вы не можете прикреплять файлы к сообщениям
Вы не можете скачивать файлы