Опавшие листья / Серии: 1-4 из 4 (Глеб Якубовский) [2018, мелодрама, HDTVRip]


by Boris G ®
23-Дек-2018 15:23

[Цитировать]

Опавшие листья / Серии: 1-4 из 4 (Глеб Якубовский) [2018, мелодрама, HDTVRip]

Опавшие листья
Год выпуска: 2018
Производство: Паламеда Продакшн
Жанр: мелодрама
Продолжительность: ~00:43:00 серия
Субтитры: нет
Режиссёр: Глеб Якубовский
В ролях: Анастасия Дубровина, Денис Нурулин, Дмитрий Егоров, Ксения Кузнецова, Лариса Маршалова, Светлана Никифорова, Марта Голубева
Описание: Оксану еще маленькой бросила мать, девочка оказалась в детдоме. Ее единственным другом там стал такой же детдомовский мальчик Петя. Всю жизнь Петя защищал и оберегал Оксану и теперь, когда они выросли, ему кажется, что они будут вместе всегда. Но Оксана считает Петю лишь другом. Она влюбляется в Сашу, парня из хорошей семьи. Саша красиво за ней ухаживает, и Оксана искренне верит, что это и есть любовь на всю жизнь. Любовь Саши оказывается мимолетной, но Оксана понимает это слишком поздно…

Реклама: Нет.
Кинопоиск
Все раздачи сериала
Sample
Качество: HDTVRip - GeneralFilm
Формат: AVI
Видео кодек: XviD
Аудио кодек: AC3
Видео: 720x400 (1.80:1), 25 fps, XviD build 73 ~1800 kbps avg, 0.249 bit/pixel
Аудио: 48.0 kHz, AC3 Dolby Digital, 2/0 (L,R) ch, ~ 192 kbps

MI

General
Complete name : D:\Opavshie listja.HDTVRip.GeneralFilm\01.Opavshie listja.HDTVRip.GeneralFilm.avi
Format : AVI
Format/Info : Audio Video Interleave
File size : 1.32 GiB
Duration : 1 h 34 min
Overall bit rate : 1 996 kb/s
Writing application : VirtualDubMod 1.5.10.3 | www.virtualdub-fr.org || (build 2550/release)
Writing library : VirtualDubMod build 2550/release
Video
ID : 0
Format : MPEG-4 Visual
Format profile : Advanced Simple@L5
Format settings : BVOP1 / Custom Matrix
Format settings, BVOP : 1
Format settings, QPel : No
Format settings, GMC : No warppoints
Format settings, Matrix : Custom
Codec ID : XVID
Codec ID/Hint : XviD
Duration : 1 h 34 min
Bit rate : 1 794 kb/s
Width : 720 pixels
Height : 400 pixels
Display aspect ratio : 16:9
Frame rate : 25.000 FPS
Color space : YUV
Chroma subsampling : 4:2:0
Bit depth : 8 bits
Scan type : Progressive
Compression mode : Lossy
Bits/(Pixel*Frame) : 0.249
Stream size : 1.19 GiB (90%)
Writing library : XviD 1.2.1 (UTC 2008-12-04)
Audio
ID : 1
Format : AC-3
Format/Info : Audio Coding 3
Codec ID : 2000
Duration : 1 h 34 min
Bit rate mode : Constant
Bit rate : 192 kb/s
Channel(s) : 2 channels
Channel positions : Front: L R
Sampling rate : 48.0 kHz
Frame rate : 31.250 FPS (1536 SPF)
Bit depth : 16 bits
Compression mode : Lossy
Stream size : 130 MiB (10%)
Alignment : Split accross interleaves
Interleave, duration : 40 ms (1.00 video frame)
Interleave, preload duratio : 500 ms
Service kind : Complete Main

Скриншоты


Скачать

Скачать бесплатно и на максимальной скорости!

Как скачивать? · Что такое торрент? · Рейтинг и ограничения




Вы не можете начинать темы
Вы не можете отвечать на сообщения
Вы не можете редактировать свои сообщения
Вы не можете удалять свои сообщения
Вы не можете голосовать в опросах
Вы не можете прикреплять файлы к сообщениям
Вы не можете скачивать файлы